↑↓torrent.by
Поиск
Логин:  Регистрация
Пароль:

Kingdom Come - Ain't Crying For The Moon (2006) FLAC

download Скачать торрент-файл   magnet Магнитная ссылка Размер: 490.37 MB Добавлен: 2024-03-25 17:00
Пиры будут получены из сети DHT
Последний сидер был замечен 2024-03-30 23:24
Исполнитель: Kingdom Come Название: Ain't Crying For The Moon Издатель: CD-Maximum CDM 0806-2558 Источник: Диск из личной коллекции Год: 2006 Жанр: Hard-Rock Страна: США Кодек: FLAC Битрейт аудио: Lossless Формат: image+.cue+.log Продолжительность: 01:03:11 Рок-Энциклопедия
[+] Трек-лист01. Two Legged Sheep 02. Not Here To Be Your Friend 03. Same Old Stars 04. Ain't Crying For The Moon 05. Perfect Citizen 06. This Is My Life 07. Bon Scott 08. Removed The Sting 09. Friends In Spirit 10. Darkroom 11. Look At You 12. Across The Universe 13. Get It On
[+] Отчёт ЕАСExact Audio Copy V1.6 from 23. October 2020 Отчёт EAC об извлечении, выполненном 21. февраля 2024, 19:53 KINGDOM COME / "Ain't Crying For The Moon" Дисковод: ASUS SBW-06C1S-U Adapter: 0 ID: 0 Режим чтения : Достоверность Использование точного потока : Да Отключение кэша аудио : Да Использование указателей C2 : Нет Коррекция смещения при чтении : 48 Способность читать области Lead-in и Lead-out : Нет Заполнение пропущенных сэмплов тишиной : Да Удаление блоков с тишиной в начале и конце : Нет При вычислениях CRC использовались нулевые сэмплы : Да Интерфейс : Установленный внешний ASPI-интерфейс Выходной формат : Пользовательский кодировщик Выбранный битрейт : 1024 kBit/s Качество : Высокий Добавление ID3-тега : Нет Утилита сжатия : C:Program Files (x86)Exact Audio CopyFlacflac.exe Дополнительные параметры : -8 -V -T "TITLE=%title%" -T "ARTIST=%artist%" -T "ALBUMARTIST=%albumartist%" -T "ALBUM=%albumtitle%" -T "DATE=%year%" -T "TRACKNUMBER=%tracknr%" -T "TRACKTOTAL=%numtracks%" -T "GENRE=%genre%" -T "COMMENT=%comment%" -T "PERFORMER=%albuminterpret%" -T "COMPOSER=%composer%" %source% -o %dest% TOC извлечённого CD Трек | Старт | Длительность | Начальный сектор | Конечный сектор --------------------------------------------------------------------- 1 | 0:00.00 | 5:29.36 | 0 | 24710 2 | 5:29.36 | 3:51.37 | 24711 | 42072 3 | 9:20.73 | 3:29.41 | 42073 | 57788 4 | 12:50.39 | 8:34.68 | 57789 | 96406 5 | 21:25.32 | 5:35.32 | 96407 | 121563 6 | 27:00.64 | 4:16.48 | 121564 | 140811 7 | 31:17.37 | 4:14.38 | 140812 | 159899 8 | 35:32.00 | 5:47.06 | 159900 | 185930 9 | 41:19.06 | 5:36.21 | 185931 | 211151 10 | 46:55.27 | 3:48.04 | 211152 | 228255 11 | 50:43.31 | 3:54.47 | 228256 | 245852 12 | 54:38.03 | 3:58.64 | 245853 | 263766 13 | 58:36.67 | 4:33.70 | 263767 | 284311 Характеристики диапазона извлечения и сообщения об ошибках Выбранный диапазон Имя файла D:RazdachiFilesKingdom Come Kingdom Come - 2006 - Ain't Crying For The Moon KINGDOM COME - ''Ain't Crying For The Moon''.wav Пиковый уровень 100.0 % Скорость извлечения 6.5 X Качество диапазона 100.0 % CRC теста 4E5A0382 CRC копии 4E5A0382 Копирование... OK Ошибок не произошло AccurateRip: сводка Трек 1 : извлечено точно (достоверность 4) (AR v2) Трек 2 : извлечено точно (достоверность 3) (AR v2) Трек 3 : извлечено точно (достоверность 3) (AR v2) Трек 4 : извлечено точно (достоверность 3) (AR v2) Трек 5 : извлечено точно (достоверность 3) (AR v2) Трек 6 : извлечено точно (достоверность 3) (AR v2) Трек 7 : извлечено точно (достоверность 3) (AR v2) Трек 8 : извлечено точно (достоверность 3) (AR v2) Трек 9 : извлечено точно (достоверность 3) (AR v2) Трек 10 : извлечено точно (достоверность 3) (AR v2) Трек 11 : извлечено точно (достоверность 3) (AR v2) Трек 12 : извлечено точно (достоверность 3) (AR v2) Трек 13 : извлечено точно (достоверность 2) (AR v1) Все треки извлечены точно Конец отчёта ---- CUETools DB Plugin V2.1.6 found Submit result: O3J6UsbEhd8yAORVd3rlWdUKBE0- has been confirmed Track | CTDB Status 1 | (34/36) Accurately ripped 2 | (36/36) Accurately ripped 3 | (36/36) Accurately ripped 4 | (36/36) Accurately ripped 5 | (36/36) Accurately ripped 6 | (35/36) Accurately ripped 7 | (35/36) Accurately ripped 8 | (35/36) Accurately ripped 9 | (36/36) Accurately ripped 10 | (36/36) Accurately ripped 11 | (36/36) Accurately ripped 12 | (35/36) Accurately ripped 13 | (36/36) Accurately ripped ==== Контрольная сумма отчёта 54EBE39098C37391AD7C884C860AEFA7EFD81BF64226248DA11CCACCA7666A5F ====
Дополнительная информация: Kingdom Come (из английского текста молитвы «Отче наш»: «Да придет Царствие Твое» — «Thy Kingdom come») — американская рок-группа, созданная рок-музыкантом немецкого происхождения Ленни Вольфом в 1987 году в Лос-Анджелесе. Время раздачи: В дневное время.

Всего файлов в раздаче: 14 
KINGDOM COME - ''Ain't Crying For The Moon''.cue1.95 kB
KINGDOM COME - ''Ain't Crying For The Moon''.flac405.87 MB
KINGDOM COME - ''Ain't Crying For The Moon''.log8.93 kB
Scans\Scan 01.jpg6.42 MB
Scans\Scan 02.jpg8.81 MB
Scans\Scan 03.jpg10.25 MB
Scans\Scan 04.jpg9.16 MB
Scans\Scan 05.jpg8.25 MB
Scans\Scan 06.jpg8.98 MB
Scans\Scan 07.jpg4.23 MB
Показать все файлы

Похожие раздачи по запросу - Kingdom
2024-04-11 magnet Королевство зверей / Le règne animal / The Animal Kingdom (2023) BDRip 1080p от Generalfilm | D 9.46 GB ↑ 0 ↓ 0
2024-04-07 magnet Королевство зверей / Le regne animal / The Animal Kingdom (2023) BDRip-HEVC 1080p от AllHevc 2.58 GB ↑ 0 ↓ 0
2024-04-06 magnet Королевство зверей / Le règne animal / The Animal Kingdom (2023) BDRip 720p от селезень | D, P2 6.15 GB ↑ 0 ↓ 0
2024-04-06 magnet Королевство зверей / Le règne animal / The Animal Kingdom (2023) BDRemux 1080p от селезень | D, P2 30.93 GB ↑ 0 ↓ 1
2024-04-05 magnet Королевство зверей / Le règne animal / The Animal Kingdom (2023) BDRip от MegaPeer | D 1.46 GB ↑ 0 ↓ 0
2024-04-05 magnet Королевство зверей / Le règne animal / The Animal Kingdom (2023) HDRip-AVC от DoMiNo & селезень | D 2.10 GB ↑ 0 ↓ 0
2024-04-05 magnet Королевство зверей / Le règne animal / The Animal Kingdom (2023) BDRip 1080p от селезень | D, P2 11.36 GB ↑ 0 ↓ 0

Комментарии


Зарегистрируйтесь чтобы добавить комментарий
Торрент клиент
byTorrent - программа для загрузки торрент-файлов.

Скачать byTorrent.exe (1,5 МБ)

Скачать byTorrent.zip (0,6 МБ)

Поддержи torrent.by
российских рублей
(300 российских рублей это 4$)

Обратная связь rss

End game ©