↑↓torrent.by
Поиск
Логин:  Регистрация
Пароль:

Белая птица: Новое чудо / Белая птица: История чуда / White Bird (2023) WEB-DLRip-AVC от DoMiNo & селезень | D

download Скачать торрент-файл   magnet Магнитная ссылка Размер: 1.59 GB Добавлен: 2024-03-25 17:00
Пиры будут получены из сети DHT
Последний сидер был замечен 2024-04-06 21:29
Информация о фильме Название: Белая птица: Новое чудо / Белая птица: История чуда Оригинальное название: White Bird Год выхода: 2023 Жанр: драма, приключения, семейный, военный, биография Режиссер: Марк Форстер В ролях: Ариэлла Глейзер, Хелен Миррен, Орландо Швердт, Брайс Гейзар, Джиллиан Андерсон, Оливия Росс, Пэтси Ферран, Джо Стоун-Фьюингс, Стюарт Маккуорри, Джим Хай О фильме: Действие картины «Белая птица. Новое чудо» разворачивается во вселенной драмы «Чудо». Героиня фильма — бабушка Джулиана, чье детство пришлось на Вторую мировую войну. Во времена немецкой оккупации ее, маленькую еврейскую девочку из французской деревни, укрыла в своем доме семья ее одноклассника, который стал для нее спасителем и лучшим другом. «Белая птица. Новое чудо» (2023) — семейная приключенческая драма с Хелен Миррен и Джиллиан Андерсон. Страна: США Студия: Lionsgate, Mandeville Films, Participant Media, Stillking Films Продолжительность: 01:56:07 Перевод: Дублированный | Paragraph Media Субтитры: Русские (Full) Файл Формат: Matroska Качество: WEB-DLRip-AVC Видео: 1024x428 at 25.000 fps, x264@L4.1, ~1571 kbps Аудио: AC3, 6 ch, ~384 kbps - | Русский | Формат субтитров: softsub (SRT) ***Рип от: -=DoMiNo=-
[+] M/IGeneral Unique ID : 322476703798260592399972619550534454718 (0xF29AC1078926768B02D29A192610CDBE) Complete name : I:White.Bird.2023.DUB.WEB-DLRip.x264.seleZen.mkv Format : Matroska Format version : Version 4 File size : 1.59 GiB Duration : 1 h 56 min Overall bit rate : 1 957 kb/s Frame rate : 25.000 FPS Movie name : White.Bird.2023.DUB.WEB-DLRip.x264.seleZen Encoded date : 2024-03-25 09:39:14 UTC Writing application : mkvmerge v83.0 ('Circle Of Friends') 64-bit Writing library : libebml v1.4.5 + libmatroska v1.7.1 Cover : Yes Attachments : cover.jpg / small_cover.jpg Video ID : 1 Format : AVC Format/Info : Advanced Video Codec Format profile : High@L4.1 Format settings : CABAC / 14 Ref Frames Format settings, CABAC : Yes Format settings, Reference : 14 frames Codec ID : V_MPEG4/ISO/AVC Duration : 1 h 56 min Bit rate : 1 571 kb/s Width : 1 024 pixels Height : 428 pixels Display aspect ratio : 2.40:1 Frame rate mode : Constant Frame rate : 25.000 FPS Color space : YUV Chroma subsampling : 4:2:0 Bit depth : 8 bits Scan type : Progressive Bits/(Pixel*Frame) : 0.143 Stream size : 1.27 GiB (80%) Title : -=DoMiNo=- Writing library : x264 core 164 r3190 7ed753b Encoding settings : cabac=1 / ref=14 / deblock=1:-2:-1 / analyse=0x3:0x133 / me=umh / subme=10 / psy=1 / psy_rd=1.04:0.05 / mixed_ref=1 / me_range=32 / chroma_me=1 / trellis=2 / 8x8dct=1 / cqm=0 / deadzone=21,11 / fast_pskip=0 / chroma_qp_offset=-3 / threads=13 / lookahead_threads=3 / sliced_threads=0 / nr=0 / decimate=0 / interlaced=0 / bluray_compat=0 / constrained_intra=0 / bframes=10 / b_pyramid=2 / b_adapt=2 / b_bias=0 / direct=1 / weightb=1 / open_gop=0 / weightp=2 / keyint=250 / keyint_min=25 / scenecut=40 / intra_refresh=0 / rc_lookahead=60 / rc=crf / mbtree=0 / crf=18.5 / qcomp=0.60 / qpmin=0 / qpmax=69 / qpstep=4 / vbv_maxrate=50000 / vbv_bufsize=62500 / crf_max=0.0 / nal_hrd=none / filler=0 / ip_ratio=1.40 / pb_ratio=1.30 / aq=3:0.90 Language : English Default : Yes Forced : No Color range : Limited Color primaries : BT.709 Transfer characteristics : BT.709 Matrix coefficients : BT.709 Audio ID : 2 Format : AC-3 Format/Info : Audio Coding 3 Commercial name : Dolby Digital Codec ID : A_AC3 Duration : 1 h 56 min Bit rate mode : Constant Bit rate : 384 kb/s Channel(s) : 6 channels Channel layout : L R C LFE Ls Rs Sampling rate : 48.0 kHz Frame rate : 31.250 FPS (1536 SPF) Compression mode : Lossy Stream size : 319 MiB (20%) Title : Дублированный | Paragraph Media Language : Russian Service kind : Complete Main Default : Yes Forced : No Text ID : 3 Format : UTF-8 Codec ID : S_TEXT/UTF8 Codec ID/Info : UTF-8 Plain Text Duration : 1 h 48 min Bit rate : 70 b/s Frame rate : 0.189 FPS Count of elements : 1235 Stream size : 56.0 KiB (0%) Title : Full Language : Russian Default : No Forced : No Menu 00:00:00.000 : en:Chapter 01 00:05:50.000 : en:Chapter 02 00:11:40.000 : en:Chapter 03 00:17:30.000 : en:Chapter 04 00:23:20.000 : en:Chapter 05 00:29:10.000 : en:Chapter 06 00:35:00.000 : en:Chapter 07 00:40:50.000 : en:Chapter 08 00:46:40.000 : en:Chapter 09 00:52:30.000 : en:Chapter 10 00:58:20.000 : en:Chapter 11 01:04:10.000 : en:Chapter 12 01:10:00.000 : en:Chapter 13 01:15:50.000 : en:Chapter 14 01:21:40.000 : en:Chapter 15 01:27:30.000 : en:Chapter 16 01:33:20.000 : en:Chapter 17 01:39:10.000 : en:Chapter 18 01:45:00.000 : en:Chapter 19 01:50:50.000 : en:Chapter 20
Релиз: Присоединяйся к: Кликай на баннеры.

Всего файлов в раздаче: 1 
White.Bird.2023.DUB.WEB-DLRip.x264.seleZen.mkv1.59 GB

Похожие раздачи по запросу - Белая
2024-04-07 magnet Белая птица: Новое чудо / Белая птица: История чуда / White Bird (2023) WEB-DLRip-HEVC 1080p от AllHevc 1.63 GB ↑ 0 ↓ 1
2024-04-03 magnet Белая камера / White Chamber (2018) WEB-DLRip от ExKinoRay | P 742.36 MB ↑ 0 ↓ 0
2024-04-02 magnet Белая камера / White Chamber (2018) WEB-DL 1080p | P 5.09 GB ↑ 0 ↓ 0
2024-03-28 magnet Белая птица: Новое чудо / Белая птица: История чуда / White Bird (2023) WEB-DLRip-AVC | КПК | D 514.70 MB ↑ 0 ↓ 0
2024-03-26 magnet Белая птица: Новое чудо / История чуда / White Bird (2023) WEB-DLRip от toxics & селезень | D 1.46 GB ↑ 1 ↓ 3
2024-03-25 magnet Белая птица: Новое чудо / Белая птица: История чуда / White Bird (2023) WEB-DL 1080p от селезень | D 5.49 GB ↑ 1 ↓ 0
2024-03-25 magnet Белая птица: Новое чудо / Белая птица: История чуда / White Bird (2023) WEB-DLRip от MegaPeer | D 1.46 GB ↑ 0 ↓ 0

Комментарии


Зарегистрируйтесь чтобы добавить комментарий
Торрент клиент
byTorrent - программа для загрузки торрент-файлов.

Скачать byTorrent.exe (1,5 МБ)

Скачать byTorrent.zip (0,6 МБ)

Поддержи torrent.by
российских рублей
(300 российских рублей это 4$)

Обратная связь rss

End game ©