↑↓torrent.by
Поиск
Логин:  Регистрация
Пароль:

Любовь на Мальдивах / Love in the Maldives (2023) WEB-DL 1080p от ELEKTRI4KA | P

download Скачать торрент-файл   magnet Магнитная ссылка Размер: 3.81 GB Раздают: 0 Качают: 1 Добавлен: 2024-03-26 05:00
Пиры будут получены из сети DHT
Последний сидер был замечен 2024-04-09 02:59
Информация о фильме Название: Любовь на Мальдивах Оригинальное название: Love in the Maldives Год выхода: 2023 Жанр: мелодрама Режиссер: Колин Тейс В ролях: Джослин Хадон, Джейк Мэнли, Люси Ньюман-Уильямс, Джулиана Уимблс, Патриция МакКензи, Аиша Хашма Хайдар, Икер Анмадей, Рафхан Шариф, Ахмед Ришаан, Намик О фильме: Журналистка Рэй Паркер знаменита статьями о своих экстремальных приключениях. Она сплавляется по горным рекам, покоряет Северный полюс, пробирается через непроходимые джунгли, поднимается на невероятные вершины. И всегда одна! Неожиданно редактор дает ей необычное задание — отправиться на Мальдивы. Шокированная девушка не понимает, как в этом раю на земле ей совершать безумства. Но Рэй была бы не Рэй, если бы не нашла повод для выработки адреналина. От местного жителя она узнает легенду о затонувшем корабле с награбленными сокровищами. Из-за сильного течения судно постоянно перемещается по дну и никто не может его найти. Значит, отчаянной журналистке пора собирать дайверскую экипировку. Выпущено: Канада, США / Hallmark Channel, Johnson Production Group Продолжительность: 01:21:50 Озвучивание: Профессиональное (многоголосое) | KION Файлы Формат: MKV Качество: WEB-DL 1080p Видео: MPEG-4 AVC, 6144 Kb/s, 1920x1080 Аудио: Russian: AC3, 640 Kb/s (6 ch) Субтитры: Нет Дополнительно: Нет Релиз группы: &  | Мы в Telegram:
[+] Инфо-файл:Complete name : Ljubov.na.Maldivah.2023.WEB-DL.1080p.ELEKTRI4KA.mkv Format : Matroska Format version : Version 4 File size : 3.81 GiB Duration : 1 h 21 min Overall bit rate mode : Constant Overall bit rate : 6 663 kb/s Frame rate : 23.976 FPS Movie name : Ljubov.na.Maldivah (2023) - ELEKTRI4KA Encoded date : 2024-03-25 01:21:45 UTC Writing application : mkvmerge v83.0 ('Circle Of Friends') 64-bit Writing library : libebml v1.4.5 + libmatroska v1.7.1 Video ID : 1 Format : AVC Format/Info : Advanced Video Codec Format profile : Constrained Baseline@L4 Format settings : 2 Ref Frames Format settings, CABAC : No Format settings, Reference frames : 2 frames Format settings, Slice count : 7 slices per frame Codec ID : V_MPEG4/ISO/AVC Duration : 1 h 21 min Bit rate mode : Constant Bit rate : 6 144 kb/s Width : 1 920 pixels Height : 1 080 pixels Display aspect ratio : 16:9 Frame rate mode : Constant Frame rate : 23.976 (24000/1001) FPS Color space : YUV Chroma subsampling : 4:2:0 Bit depth : 8 bits Scan type : Progressive Bits/(Pixel*Frame) : 0.124 Stream size : 3.44 GiB (90%) Title : Ljubov.na.Maldivah (2023) - ELEKTRI4KA Default : Yes Forced : No Audio ID : 2 Format : AC-3 Format/Info : Audio Coding 3 Commercial name : Dolby Digital Codec ID : A_AC3 Duration : 1 h 21 min Bit rate mode : Constant Bit rate : 640 kb/s Channel(s) : 6 channels Channel layout : L R C LFE Ls Rs Sampling rate : 48.0 kHz Frame rate : 31.250 FPS (1536 SPF) Compression mode : Lossy Stream size : 375 MiB (10%) Title : MVO Language : Russian Service kind : Complete Main Default : Yes Forced : No
[+] Скриншоты

Всего файлов в раздаче: 1 
Ljubov.na.Maldivah.2023.WEB-DL.1080p.ELEKTRI4KA.mkv3.81 GB

Похожие раздачи по запросу - Любовь
Сегодня magnet Влад Сташевский - Любовь здесь больше не живёт (1994) MP3 80.82 MB ↑ 0 ↓ 0
Сегодня magnet Любовь до последнего / Expiration Date / Casi muerta (2023) WEB-DLRip от New-Team | P | Кинопоиск HD 1.46 GB ↑ 0 ↓ 0
2024-04-09 magnet Сколько стоит любовь [S01] (2024) WEB-DLRip-AVC от Files-x 2.40 GB ↑ 0 ↓ 0
2024-04-08 magnet Сколько стоит любовь [S01] (2024) WEB-DL 1080p от Files-x 5.14 GB ↑ 0 ↓ 0
2024-04-08 magnet Сколько стоит любовь [S01] (2024) WEB-DL 720p от Files-x 2.91 GB ↑ 0 ↓ 0
2024-04-08 magnet Сколько стоит любовь [S01] (2024) WEB-DLRip от Files-x 2.36 GB ↑ 0 ↓ 0
2024-04-07 magnet Сколько живет любовь [01-04 из 04] (2019) WEB-DL 1080p 4.92 GB ↑ 0 ↓ 0

Комментарии


Зарегистрируйтесь чтобы добавить комментарий
Торрент клиент
byTorrent - программа для загрузки торрент-файлов.

Скачать byTorrent.exe (1,5 МБ)

Скачать byTorrent.zip (0,6 МБ)

Поддержи torrent.by
российских рублей
(300 российских рублей это 4$)

Обратная связь rss

End game ©