↑↓torrent.by
Поиск
Логин:  Регистрация
Пароль:

Царевна и Дракон [S01] (2018) WEB-DL 1080p

download Скачать торрент-файл   magnet Магнитная ссылка Размер: 1.47 GB Добавлен: 2024-03-26 11:00
Пиры будут получены из сети DHT
Последний сидер был замечен 2024-03-27 12:44
Информация о фильме Оригинальное название: Царевна и Дракон Год выпуска: 2018 Жанр: мультфильм, приключения Страна: Россия Режиссер: Марина Нефедова В ролях: Таисия Тришина, Филипп Лебедев, Андрей Казанцев, Мария Борисова, Ольга Сирина, Александр Матвеев, Константин Карасик Описание: Скучно целыми днями сидеть в замке и учить уроки! Используя магическую книгу, принцесса Варвара может в любой момент переместиться в волшебную страну, где окажется вместе со своими добрыми друзьями - Дракошей и забавными гномами. Продолжительность: 6 x 00:07:00 Перевод: не требуется Файл Качество: WEB-DL 1080p | OKKO Формат: MKV Видео: AVC, 1920x1080, 25 fps, ~ 5000 kbps Аудио: AAC, 48 KHz, 2 ch, 256 kbps Субтитры: отсутствуют
[+] Список серий01. День рождения 02. Матч века 03. Волшебный жезл 04. Ловушка 05. Золотое зеркало 06. Учительница танцев
[+] Подробные технические данныеGeneral Unique ID : 312318356700448562889634274678221521160 (0xEAF653D95778099CF5E069C9BAEF4108) Complete name : Царевна и дракон. Сезон 1. Серия 01 - День рождения.mkv Format : Matroska Format version : Version 4 File size : 262 MiB Duration : 7 min 0 s Overall bit rate : 5 226 kb/s Encoded date : UTC 2024-03-25 10:45:40 Writing application : mkvmerge v62.0.0 ('Apollo') 64-bit Writing library : libebml v1.4.2 + libmatroska v1.6.4 Video ID : 1 Format : AVC Format/Info : Advanced Video Codec Format profile : High@L4 Format settings : CABAC / 3 Ref Frames Format settings, CABAC : Yes Format settings, Reference frames : 3 frames Codec ID : V_MPEG4/ISO/AVC Duration : 7 min 0 s Bit rate : 5 000 kb/s Width : 1 920 pixels Height : 1 080 pixels Display aspect ratio : 16:9 Frame rate mode : Constant Frame rate : 25.000 FPS Color space : YUV Chroma subsampling : 4:2:0 Bit depth : 8 bits Scan type : Progressive Bits/(Pixel*Frame) : 0.096 Stream size : 249 MiB (95%) Writing library : x264 core 164 r3095 baee400 Encoding settings : cabac=1 / ref=4 / deblock=1:-1:-1 / analyse=0x3:0x133 / me=umh / subme=9 / psy=1 / psy_rd=0.40:1.00 / mixed_ref=1 / me_range=24 / chroma_me=1 / trellis=0 / 8x8dct=1 / cqm=0 / deadzone=21,11 / fast_pskip=1 / chroma_qp_offset=-2 / threads=3 / lookahead_threads=1 / sliced_threads=0 / nr=0 / decimate=1 / interlaced=0 / bluray_compat=0 / stitchable=1 / constrained_intra=0 / bframes=8 / b_pyramid=1 / b_adapt=0 / b_bias=0 / direct=3 / weightb=1 / open_gop=0 / weightp=2 / keyint=75 / keyint_min=38 / scenecut=0 / intra_refresh=0 / rc_lookahead=40 / rc=2pass / mbtree=1 / bitrate=5000 / ratetol=1.0 / qcomp=0.80 / qpmin=1 / qpmax=69 / qpstep=4 / cplxblur=20.0 / qblur=0.5 / vbv_maxrate=7500 / vbv_bufsize=10000 / nal_hrd=none / filler=0 / ip_ratio=1.40 / aq=1:1.00 Default : Yes Forced : No Color range : Limited Color primaries : BT.709 Transfer characteristics : BT.709 Matrix coefficients : BT.709 Audio ID : 2 Format : AAC LC Format/Info : Advanced Audio Codec Low Complexity Codec ID : A_AAC-2 Duration : 7 min 0 s Bit rate : 258 kb/s Channel(s) : 2 channels Channel layout : L R Sampling rate : 48.0 kHz Frame rate : 46.875 FPS (1024 SPF) Compression mode : Lossy Stream size : 12.9 MiB (5%) Language : Russian Default : Yes Forced : No
[+] Скриншоты
Не уходите сразу же после скачивания , раздача до нескольких скачавших , дальше все зависит от вас жизнь раздачи

Всего файлов в раздаче: 6 
Царевна и дракон. Сезон 1. Серия 01 - День рождения.mkv261.68 MB
Царевна и дракон. Сезон 1. Серия 02 - Матч века.mkv259.76 MB
Царевна и дракон. Сезон 1. Серия 03 - Волшебный жезл.mkv246.45 MB
Царевна и дракон. Сезон 1. Серия 04 - Ловушка.mkv245.65 MB
Царевна и дракон. Сезон 1. Серия 05 - Золотое зеркало.mkv241.82 MB
Царевна и дракон. Сезон 1. Серия 06 - Учительница танцев.mkv249.29 MB

Комментарии


Зарегистрируйтесь чтобы добавить комментарий
Торрент клиент
byTorrent - программа для загрузки торрент-файлов.

Скачать byTorrent.exe (1,5 МБ)

Скачать byTorrent.zip (0,6 МБ)

Поддержи torrent.by
российских рублей
(300 российских рублей это 4$)

Обратная связь rss

End game ©