↑↓torrent.by
Поиск
Логин:  Регистрация
Пароль:

Пять минут тишины. Море и горы [05x01-14 из 24] (2023) WEBRip 1080p

download Скачать торрент-файл   magnet Магнитная ссылка Размер: 22.38 GB Добавлен: 2024-03-26 11:00
Пиры будут получены из сети DHT
Последний сидер был замечен 2024-03-26 11:00
Информация о сериале Оригинальное название: Пять минут тишины. Море и горы Год выпуска: 2023 Жанр: Мелодрама, приключения, детектив Режиссер: Наталия Микрюкова, Михаил Кабанов, Алёна Ташева В ролях: Игорь Лифанов, Роман Курцын, Майя Вознесенская, Олег Андреев, Ольга Филиппова, Никита Транцеев, Константин Воробьёв, Сергей Борисов, Андрей Аверьянов, Антонина Дивина, Дмитрий Кривошеев, Сергей Пиоро, Леонид Борисов, Денис Доронин, Татьяна Ли О сериале: Отряд Гиреева покидает пологие берега Волги, чтобы перебраться на другие берега, покрытые галькой и омываемые теплым морем. Сочи! Райское место для всех, кроме спасателей. Море и горы, реки и пещеры, рафтинг и дайвинг, конные прогулки и полеты на воздушных шарах – все это бесконечное многообразие не позволит сотрудникам МЧС сидеть без работы. В Сочи спасатели Гиреева делят одну базу с другим местным отрядом. Ребята перенимают друг у друга бесценный опыт, вместе ездят на вызовы и постепенно становятся одной семьей. А в семье случается всякое. Нашим героям предстоит приобрести новых друзей и новых врагов. Непросто вычислить врага, надевшего маску друга. Непросто преодолеть неприязнь и протянуть руку помощи. Непросто бороться за свою любовь. Автор релиза: MrMittens Без рекламы Выпущено: Россия, Приор Продакшн Продолжительность: ~ 00:50:00 Язык: Русский Файл Формат: MKV Качество: WEBRip 1080p Видео: MPEG-4 AVC, ~ 4500 Кбит/с, 1920x1072 Аудио: AC3, 2 ch, 192 Кбит/с Субтитры: Нет
[+] Скриншоты
[+] MIUnique ID : 326078045815378720743782665543141128632 (0xF55058E6505B3157712E8C76B41979B8) Complete name : D:Pyat'.minut.tishiny.S05.WEB-DL.1080p.MrMittensPyat'.minut.tishiny.S05.E04.WEB-DL.1080p.MrMittens.mkv Format : Matroska Format version : Version 4 File size : 1.55 GiB Duration : 47 min 34 s Overall bit rate mode : Variable Overall bit rate : 4 676 kb/s Frame rate : 25.000 FPS Encoded date : 2024-03-19 19:11:37 UTC Writing application : mkvmerge v43.0.0 ('The Quartermaster') 64-bit Writing library : libebml v1.3.10 + libmatroska v1.5.2 Video ID : 1 Format : AVC Format/Info : Advanced Video Codec Format profile : High@L4.1 Format settings : CABAC / 4 Ref Frames Format settings, CABAC : Yes Format settings, Reference : 4 frames Codec ID : V_MPEG4/ISO/AVC Duration : 47 min 34 s Bit rate mode : Variable Bit rate : 4 500 kb/s Width : 1 920 pixels Height : 1 072 pixels Display aspect ratio : 16:9 Frame rate mode : Constant Frame rate : 25.000 FPS Color space : YUV Chroma subsampling : 4:2:0 Bit depth : 8 bits Scan type : Progressive Bits/(Pixel*Frame) : 0.087 Stream size : 1.49 GiB (96%) Language : English Default : Yes Forced : No Color range : Limited Color primaries : BT.709 Transfer characteristics : BT.709 Matrix coefficients : BT.709 Audio ID : 2 Format : AC-3 Format/Info : Audio Coding 3 Commercial name : Dolby Digital Codec ID : A_AC3 Duration : 47 min 34 s Bit rate mode : Constant Bit rate : 192 kb/s Channel(s) : 2 channels Channel layout : L R Sampling rate : 48.0 kHz Frame rate : 31.250 FPS (1536 SPF) Compression mode : Lossy Delay relative to video : -120 ms Stream size : 65.3 MiB (4%) Language : Russian Service kind : Complete Main Default : Yes Forced : No

Всего файлов в раздаче: 14 
Pyat'.minut.tishiny.S05.E01.WEB-DL.1080p.MrMittens.mkv1.58 GB
Pyat'.minut.tishiny.S05.E02.WEB-DL.1080p.MrMittens.mkv1.61 GB
Pyat'.minut.tishiny.S05.E03.WEB-DL.1080p.MrMittens.mkv1.57 GB
Pyat'.minut.tishiny.S05.E04.WEB-DL.1080p.MrMittens.mkv1.55 GB
Pyat'.minut.tishiny.S05.E05.WEB-DL.1080p.MrMittens.mkv1.61 GB
Pyat'.minut.tishiny.S05.E06.WEB-DL.1080p.MrMittens.mkv1.57 GB
Pyat'.minut.tishiny.S05.E07.WEB-DL.1080p.MrMittens.mkv1.62 GB
Pyat'.minut.tishiny.S05.E08.WEB-DL.1080p.MrMittens.mkv1.60 GB
Pyat'.minut.tishiny.S05.E09.WEB-DL.1080p.MrMittens.mkv1.64 GB
Pyat'.minut.tishiny.S05.E10.WEB-DL.1080p.MrMittens.mkv1.60 GB
Показать все файлы

Похожие раздачи по запросу - Пять
2024-04-10 magnet Пять минут тишины. Море и горы [S05] (2023) WEBRip от Generalfilm | КПК 4.37 GB ↑ 0 ↓ 0
2024-04-04 magnet Пять женщин для убийцы / 5 женщин для убийцы / 5 donne per l'assassino (1974) BDRip 720p от msltel | L1 6.33 GB ↑ 0 ↓ 0
2024-04-03 magnet Пять женщин для убийцы / 5 женщин для убийцы / 5 donne per l'assassino (1974) BDRip-AVC от msltel | L1 3.22 GB ↑ 0 ↓ 0
2024-03-31 magnet Пять минут тишины. Море и горы [S05] (2023) WEBRip-AVC от Files-x 14.73 GB ↑ 0 ↓ 0
2024-03-31 magnet Пять минут тишины [S01-05] (2017-2023) WEBRip, WEB-DLRip 53.43 GB ↑ 0 ↓ 0
2024-03-30 magnet Пять минут тишины. Море и горы [S05] (2023) WEBRip 1080p 38.41 GB ↑ 0 ↓ 0
2024-03-30 magnet Пять минут тишины. Море и горы [S05] (2023) WEBRip 720p от Files-x 26.09 GB ↑ 0 ↓ 0

Комментарии


Зарегистрируйтесь чтобы добавить комментарий
Торрент клиент
byTorrent - программа для загрузки торрент-файлов.

Скачать byTorrent.exe (1,5 МБ)

Скачать byTorrent.zip (0,6 МБ)

Поддержи torrent.by
российских рублей
(300 российских рублей это 4$)

Обратная связь rss

End game ©