↑↓torrent.by
Поиск
Логин:  Регистрация
Пароль:

Императорско-королевские дезертиры / C.K. Dezerterzy (1985) DVDRip-AVC от ExKinoRay | L1

download Скачать торрент-файл   magnet Магнитная ссылка Размер: 2.55 GB Добавлен: 2024-03-26 11:00
Пиры будут получены из сети DHT
Последний сидер был замечен 2024-04-02 21:58
Информация о фильме Название: Императорско-королевские дезертиры / Дезертиры императорской армии Оригинальное название: C.K. Dezerterzy Год выхода: 1985 Жанр: Комедия, приключения, военный Режиссер: Януш Маевский В ролях: Марек Кондрат, Золтан Бэзэрэды, Виктор Зборовский, Яцек Сас-Урыновский, Роберт Колтаи, Анна Гроностай, Калина Ендрусик, Кшиштоф Ковалевский, Войчех Покора, Збигнев Запасевич, Леон Немчик, Ольгерд Лукашевич, Януш Буковский, Мариуш Дмоховский, Стефан Фридман, Йозеф Абргам О фильме: 1918 год. В маленький гарнизон где-то в венгерской провинции прибывает новый заместитель командира обер-лейтенант фон Ногай. Уверенный в себе австриец, страстно желающий превратить здешнее многонациональное скопище разгильдяев и раздолбаев в боеспособную роту императорской армии. Особое внимание он обращает на «неблагонадежных». Одним из которых является молодой поляк, рядовой Ян Канёвский, по прозвищу Каня. Последний вместе с венгром Бенедеком планирует операцию «Покрывало» — побег из армии… Страна: Польша, Венгрия Студия: Mafilm, Zespol Filmowy "Zodiak" Продолжительность: 02:32:20 Перевод: Любительский одноголосый (pandoctor) Файл Формат: MKV Качество: DVDRip-AVC Видео: MPEG-4 AVC, 764x480, 2200 Кбит/с Аудио: AC3, 2 ch, 192 Кбит/с Субтитры: Нет
[+] MIОбщее Уникальный идентификатор : 198262664260807403847176510453014102015 (0x9528000CCE11EFA813BFAB5AD3C87FFF) Полное имя : D:MOVIESC.K.Dezerterzy.1985.DVDRip-AVC.ExKinoRay.mkv Формат : Matroska Версия формата : Version 4 Размер файла : 2,55 Гбайт Продолжительность : 2 ч. 32 м. Общий поток : 2 394 Кбит/сек Частота кадров : 25,000 кадров/сек Дата кодирования : 2024-03-26 04:32:59 UTC Программа кодирования : mkvmerge v46.0.0 ('No Deeper Escape') 64-bit Библиотека кодирования : libebml v1.3.10 + libmatroska v1.5.2 Видео Идентификатор : 1 Формат : AVC Формат/Информация : Advanced Video Codec Профиль формата : High@L4.1 Настройки формата : CABAC / 14 Ref Frames Параметр CABAC формата : Да Параметр RefFrames формата : 14 кадров Идентификатор кодека : V_MPEG4/ISO/AVC Продолжительность : 2 ч. 32 м. Битрейт : 2 200 Кбит/сек Ширина : 764 пикселя Высота : 480 пикселей Соотношение сторон : 16:10 Режим частоты кадров : Постоянный Частота кадров : 25,000 кадров/сек Цветовое пространство : YUV Субдискретизация насыщенности : 4:2:0 Битовая глубина : 8 бит Тип развёртки : Прогрессивная Бит/(Пиксели*Кадры) : 0.240 Размер потока : 2,34 Гбайт (92%) Библиотека кодирования : x264 core 164 r3107 a8b68eb Настройки программы : cabac=1 / ref=14 / deblock=1:-2:-2 / analyse=0x3:0x133 / me=umh / subme=10 / psy=1 / psy_rd=1.05:0.15 / mixed_ref=1 / me_range=32 / chroma_me=0 / trellis=2 / 8x8dct=1 / cqm=0 / deadzone=21,11 / fast_pskip=0 / chroma_qp_offset=-3 / threads=6 / lookahead_threads=1 / sliced_threads=0 / nr=0 / decimate=0 / interlaced=0 / bluray_compat=0 / constrained_intra=0 / bframes=10 / b_pyramid=2 / b_adapt=2 / b_bias=0 / direct=3 / weightb=1 / open_gop=0 / weightp=2 / keyint=250 / keyint_min=25 / scenecut=40 / intra_refresh=0 / rc=2pass / mbtree=0 / bitrate=2200 / ratetol=1.0 / qcomp=0.60 / qpmin=0 / qpmax=69 / qpstep=4 / cplxblur=20.0 / qblur=0.5 / ip_ratio=1.40 / pb_ratio=1.30 / aq=1:1.00 Язык : Polish Default : Да Forced : Нет Аудио Идентификатор : 2 Формат : AC-3 Формат/Информация : Audio Coding 3 Коммерческое название : Dolby Digital Идентификатор кодека : A_AC3 Продолжительность : 2 ч. 32 м. Вид битрейта : Постоянный Битрейт : 192 Кбит/сек Каналы : 2 канала Channel layout : L R Частота : 48,0 КГц Частота кадров : 31,250 кадров/сек (1536 SPF) Метод сжатия : С потерями Размер потока : 209 Мбайт (8%) Язык : Russian Service kind : Complete Main Default : Да Forced : Нет Меню 00:00:00.000 : en:Chapter 01 00:05:13.200 : en:Chapter 02 00:08:55.280 : en:Chapter 03 00:12:26.400 : en:Chapter 04 00:14:51.160 : en:Chapter 05 00:19:04.200 : en:Chapter 06 00:21:04.120 : en:Chapter 07 00:26:05.240 : en:Chapter 08 00:28:06.040 : en:Chapter 09 00:31:18.600 : en:Chapter 10 00:33:07.720 : en:Chapter 11 00:36:31.560 : en:Chapter 12 00:39:32.560 : en:Chapter 13 00:44:17.440 : en:Chapter 14 00:47:33.800 : en:Chapter 15 00:51:11.120 : en:Chapter 16 00:56:05.200 : en:Chapter 17 01:01:37.280 : en:Chapter 18 01:06:05.000 : en:Chapter 19 01:09:02.440 : en:Chapter 20 01:11:38.960 : en:Chapter 21 01:15:04.480 : en:Chapter 22 01:18:28.520 : en:Chapter 23 01:21:39.200 : en:Chapter 24 01:26:06.320 : en:Chapter 25 01:29:33.600 : en:Chapter 26 01:34:32.000 : en:Chapter 27 01:37:28.920 : en:Chapter 28 01:41:45.480 : en:Chapter 29 01:44:44.080 : en:Chapter 30 01:48:22.880 : en:Chapter 31 01:51:01.560 : en:Chapter 32 01:55:00.400 : en:Chapter 33 02:00:01.520 : en:Chapter 34 02:03:37.000 : en:Chapter 35 02:07:51.040 : en:Chapter 36 02:10:51.960 : en:Chapter 37 02:13:15.080 : en:Chapter 38 02:16:29.080 : en:Chapter 39 02:20:16.920 : en:Chapter 40 02:25:23.960 : en:Chapter 41 02:29:59.240 : en:Chapter 42
[+] Скриншоты

Всего файлов в раздаче: 1 
C.K.Dezerterzy.1985.DVDRip-AVC.ExKinoRay.mkv2.55 GB

Комментарии


Зарегистрируйтесь чтобы добавить комментарий
Торрент клиент
byTorrent - программа для загрузки торрент-файлов.

Скачать byTorrent.exe (1,5 МБ)

Скачать byTorrent.zip (0,6 МБ)

Поддержи torrent.by
российских рублей
(300 российских рублей это 4$)

Обратная связь rss

End game ©