↑↓torrent.by
Поиск
Логин:  Регистрация
Пароль:

Бременские музыканты (2023) WEB-DLRip-AVC от MegaPeer

download Скачать торрент-файл   magnet Магнитная ссылка Размер: 1.83 GB Добавлен: 2024-03-26 11:00
Пиры будут получены из сети DHT
Последний сидер был замечен 2024-04-14 20:55
«Смех и радость мы приносим людям!» Информация о фильме Название: Бременские музыканты Год выхода: 2023 Жанр: Приключения, семейный, фэнтези, комедия Режиссер: Алексей Нужный В ролях: Тихон Жизневский, Валентина Ляпина, Роман Курцын, Аскар Нигамедзянов, Ирина Горбачёва, Дмитрий Дюжев, Сергей Бурунов, Мария Аронова, Константин Хабенский, Юлия Пересильд О фильме: Трубадур и его друзья-самозванцы — Пес, Кошка, Осел и самовлюбленный Петух — объединились, чтобы совершить подвиг. Прежде всего они должны рассмешить дочь Короля, но встреча с Принцессой грозит опасным приключением. Против Трубадура и его друзей — коварные враги, интриги и ловушки, но за любовь надо сражаться. А тут еще Принцесса сбежала из дворца. В одном клубке — преступные схемы Разбойников, интриги Сыщика, капризы и тайны королевской семейки, но веселые музыканты с неутомимым Трубадуром заставят всех плясать под свою дудку. Страна: Россия Студия: Телеканал «Россия 1», Союзмультфильм, Студия Тритэ Продолжительность: 01:55:40 Перевод: Не требуется Файл Качество: WEB-DLRip-AVC Формат: MKV Кодек: MPEG-4 AVC Видео: 720x302 (2.40:1), 24 fps, MPEG-4 AVC ~ 1835 Kbps avg, 0.352 bit/pixel Аудио: AC3, 48 kHz, 6 ch, ~384.00 kbps avg | русский | Субтитры: Отсутствуют
[+] Инфо-файлОбщее Уникальный идентификатор : 240552511112633152182188554708735391393 (0xB4F8BA7AB644E33D98E81815BBFE76A1) Полное имя : Bremenskie.muzykanty.2023.RUS.WEBDL.DD5.1.x264.MegaPeer.mkv Формат : Matroska Версия формата : Version 4 Размер файла : 1,83 Гбайт Продолжительность : 1 ч. 55 м. Общий поток : 2 267 Кбит/сек Частота кадров : 24,000 кадра/сек Название фильма : Бременские музыканты (2023) от stillet@MegaPeer Дата кодирования : 2024-03-26 03:29:50 UTC Программа кодирования : mkvmerge v15.0.0 ('Duel with the Devil') 64-bit Библиотека кодирования : libebml v1.3.5 + libmatroska v1.4.5 Attachments : poster.png Видео Идентификатор : 1 Формат : AVC Формат/Информация : Advanced Video Codec Профиль формата : High@L4.1 Настройки формата : CABAC / 12 Ref Frames Параметр CABAC формата : Да Параметр RefFrames формата : 12 кадров Идентификатор кодека : V_MPEG4/ISO/AVC Продолжительность : 1 ч. 55 м. Битрейт : 1 835 Кбит/сек Ширина : 720 пикселей Высота : 302 пикселя Соотношение сторон : 2,40:1 Режим частоты кадров : Постоянный Частота кадров : 24,000 кадра/сек Цветовое пространство : YUV Субдискретизация насыщенности : 4:2:0 Битовая глубина : 8 бит Тип развёртки : Прогрессивная Бит/(Пиксели*Кадры) : 0.352 Размер потока : 1,48 Гбайт (81%) Библиотека кодирования : x264 core 164 r3156+57M stillet t_mod_New Настройки программы : cabac=1 / ref=12 / deblock=1:-3:-3 / analyse=0x3:0x113 / me=umh / subme=10 / psy=1 / fade_compensate=0.00 / psy_rd=1.01:0.03 / mixed_ref=1 / me_range=32 / chroma_me=1 / trellis=2 / 8x8dct=1 / cqm=0 / deadzone=21,11 / fast_pskip=0 / chroma_qp_offset=-3 / threads=9 / lookahead_threads=2 / sliced_threads=0 / nr=0 / decimate=0 / interlaced=0 / bluray_compat=0 / constrained_intra=0 / fgo=0 / bframes=10 / b_pyramid=2 / b_adapt=2 / b_bias=0 / direct=3 / weightb=1 / open_gop=0 / weightp=2 / keyint=240 / keyint_min=24 / scenecut=40 / intra_refresh=0 / rc_lookahead=40 / rc=2pass / mbtree=0 / bitrate=1835 / ratetol=1.0 / qcomp=0.60 / qpmin=0:0:0 / qpmax=69:69:69 / qpstep=4 / cplxblur=20.0 / qblur=0.5 / vbv_maxrate=50000 / vbv_bufsize=62500 / nal_hrd=none / filler=0 / ip_ratio=1.40 / pb_ratio=1.30 / aq=1:1.10 / aq-sensitivity=10.00 / aq-factor=1.00:1.00:1.00 / aq2=0 / aq3=0 Язык : Russian Default : Да Forced : Нет Аудио Идентификатор : 2 Формат : AC-3 Формат/Информация : Audio Coding 3 Коммерческое название : Dolby Digital Идентификатор кодека : A_AC3 Продолжительность : 1 ч. 55 м. Вид битрейта : Постоянный Битрейт : 384 Кбит/сек Каналы : 6 каналов Channel layout : L R C LFE Ls Rs Частота : 48,0 КГц Частота кадров : 31,250 кадров/сек (1536 SPF) Метод сжатия : С потерями Размер потока : 318 Мбайт (17%) Заголовок : OKKO Язык : Russian Service kind : Complete Main Default : Да Forced : Нет
Релиз:

Всего файлов в раздаче: 1 
Bremenskie.muzykanty.2023.RUS.WEBDL.DD5.1.x264.MegaPeer.mkv1.83 GB

Похожие раздачи по запросу - Бременские
2024-03-31 magnet Бременские музыканты (2023) WEB-DLRip-AVC от DoMiNo 745.96 MB ↑ 0 ↓ 1
2024-03-29 magnet Бременские музыканты (2023) WEB-DLRip от ExKinoRay 749.15 MB ↑ 1 ↓ 1
2024-03-28 magnet Бременские музыканты (2023) WEB-DLRip-AVC от ExKinoRay 2.04 GB ↑ 1 ↓ 2
2024-03-26 magnet Бременские музыканты (2023) WEB-DLRip от Generalfilm | КПК 439.98 MB ↑ 0 ↓ 0
2024-03-26 magnet Бременские музыканты [2023, приключения, семейный, фэнтези, комедия, WEB-DLRip-AVC] 1.46 GB ↑ 1 ↓ 0
2024-03-26 magnet Бременские музыканты (2023) WEB-DLRip-AVC от ExKinoRay 1.46 GB ↑ 0 ↓ 0
2024-03-26 magnet Бременские музыканты (2023) WEB-DLRip 720p от ExKinoRay 3.14 GB ↑ 0 ↓ 0

Комментарии


Зарегистрируйтесь чтобы добавить комментарий
Торрент клиент
byTorrent - программа для загрузки торрент-файлов.

Скачать byTorrent.exe (1,5 МБ)

Скачать byTorrent.zip (0,6 МБ)

Поддержи torrent.by
российских рублей
(300 российских рублей это 4$)

Обратная связь rss

End game ©