↑↓torrent.by
Поиск
Логин:  Регистрация
Пароль:

Бременские музыканты (2023) WEB-DLRip 720p от ExKinoRay

download Скачать торрент-файл   magnet Магнитная ссылка Размер: 3.14 GB Раздают: 1 Качают: 1 Добавлен: 2024-03-26 11:00
Пиры будут получены из сети DHT
Последний сидер был замечен сегодня в 16:38
Информация о фильме Название: Бременские музыканты Год выхода: 2023 Жанр: Приключения, семейный, фэнтези, комедия Режиссер: Алексей Нужный В ролях: Тихон Жизневский, Валентина Ляпина, Роман Курцын, Аскар Нигамедзянов, Ирина Горбачёва, Дмитрий Дюжев, Сергей Бурунов, Мария Аронова, Константин Хабенский, Юлия Пересильд, Мирон Проворов, Оксана Суркова, Павел Стонт, Мария Жидкова, Богдан Кияшко, Тереза Диуро, Геннадий Искорцев, Михаил Селиванов, Стефан Петров, Николай Самсонов, Анна Крамер, Антон Коновалов, Санта Нужная, Дея Сиберт, Александра Попова, Степан Самойленко, Никита Никитин, Сергей Федоров, Игорь Царегородцев, Артур Иванов, Елизавета Столбова, Илья Варанкин, Николай Федькин, Николай Евстафьев, Сергей Бурбон, Гарик Айвазов, Михаил Коновалов, Михаил Орлов, Алексей Проценко О фильме: Трубадур и его друзья-самозванцы — Пес, Кошка, Осел и самовлюбленный Петух — объединились, чтобы совершить подвиг. Прежде всего они должны рассмешить дочь Короля, но встреча с Принцессой грозит опасным приключением. Против Трубадура и его друзей — коварные враги, интриги и ловушки, но за любовь надо сражаться. А тут еще Принцесса сбежала из дворца. В одном клубке — преступные схемы Разбойников, интриги Сыщика, капризы и тайны королевской семейки, но веселые музыканты с неутомимым Трубадуром заставят всех плясать под свою дудку. Страна: Россия Студия: Телеканал «Россия 1», Союзмультфильм, Студия Тритэ Язык:Русский Файл Формат: MKV Качество: WEB-DLRip 720p Видео: MPEG-4 AVC, ~ 3500 Кбит/с, 1280x536, 25 кадр/с Аудио : Русский AC3, 6 ch, 384 Кбит/с RUS Продолжительность: 01:55:39 Субтитры: Нет Реклама: Отсутствует
[+] МИ General Unique ID : 171836892910679642465063432319692248640 (0x814694EE4529015D8CD9ED3CE36D1640) Complete name : G:Bremenskie.muzykanty.2023.WEB-DLRip.720p.ExKinoRay.mkv Format : Matroska Format version : Version 4 File size : 3.14 GiB Duration : 1 h 55 min Overall bit rate : 3 886 kb/s Encoded date : UTC 2024-03-26 00:05:23 Writing application : mkvmerge v6.9.1 ('Blue Panther') 64bit built on Apr 18 2014 18:23:38 Writing library : libebml v1.3.0 + libmatroska v1.4.1 Video ID : 1 Format : AVC Format/Info : Advanced Video Codec Format profile : High@L4.1 Format settings : CABAC / 9 Ref Frames Format settings, CABAC : Yes Format settings, Reference frames : 9 frames Codec ID : V_MPEG4/ISO/AVC Duration : 1 h 55 min Bit rate : 3 500 kb/s Width : 1 280 pixels Height : 536 pixels Display aspect ratio : 2.40:1 Frame rate mode : Constant Frame rate : 24.000 FPS Color space : YUV Chroma subsampling : 4:2:0 Bit depth : 8 bits Scan type : Progressive Bits/(Pixel*Frame) : 0.213 Stream size : 2.77 GiB (88%) Writing library : x264 core 146 r2538 121396c Encoding settings : cabac=1 / ref=9 / deblock=1:-3:-3 / analyse=0x3:0x113 / me=umh / subme=11 / psy=1 / psy_rd=1.00:0.02 / mixed_ref=1 / me_range=32 / chroma_me=1 / trellis=2 / 8x8dct=1 / cqm=0 / deadzone=21,11 / fast_pskip=1 / chroma_qp_offset=-3 / threads=24 / lookahead_threads=8 / sliced_threads=0 / nr=0 / decimate=0 / interlaced=0 / bluray_compat=0 / constrained_intra=0 / bframes=10 / b_pyramid=2 / b_adapt=2 / b_bias=0 / direct=3 / weightb=1 / open_gop=0 / weightp=2 / keyint=250 / keyint_min=23 / scenecut=40 / intra_refresh=0 / rc_lookahead=60 / rc=2pass / mbtree=1 / bitrate=3500 / ratetol=1.0 / qcomp=0.60 / qpmin=0 / qpmax=69 / qpstep=4 / cplxblur=20.0 / qblur=0.5 / vbv_maxrate=14000 / vbv_bufsize=14000 / nal_hrd=none / filler=0 / ip_ratio=1.40 / aq=3:1.40 Language : Russian Default : Yes Forced : No Color range : Limited Color primaries : BT.709 Transfer characteristics : BT.709 Matrix coefficients : BT.709 Audio ID : 2 Format : AC-3 Format/Info : Audio Coding 3 Commercial name : Dolby Digital Codec ID : A_AC3 Duration : 1 h 55 min Bit rate mode : Constant Bit rate : 384 kb/s Channel(s) : 6 channels Channel layout : L R C LFE Ls Rs Sampling rate : 48.0 kHz Frame rate : 31.250 FPS (1536 SPF) Compression mode : Lossy Stream size : 318 MiB (10%) Language : Russian Service kind : Complete Main Default : Yes Forced : No
[+] Скриншоты
Релиз от:

Всего файлов в раздаче: 1 
Bremenskie.muzykanty.2023.WEB-DLRip.720p.ExKinoRay.mkv3.14 GB

Похожие раздачи по запросу - Бременские
2024-03-31 magnet Бременские музыканты (2023) WEB-DLRip-AVC от DoMiNo 745.96 MB ↑ 0 ↓ 4
2024-03-29 magnet Бременские музыканты (2023) WEB-DLRip от ExKinoRay 749.15 MB ↑ 0 ↓ 0
2024-03-28 magnet Бременские музыканты (2023) WEB-DLRip-AVC от ExKinoRay 2.04 GB ↑ 1 ↓ 4
2024-03-26 magnet Бременские музыканты (2023) WEB-DLRip от Generalfilm | КПК 439.98 MB ↑ 0 ↓ 0
2024-03-26 magnet Бременские музыканты [2023, приключения, семейный, фэнтези, комедия, WEB-DLRip-AVC] 1.46 GB ↑ 3 ↓ 0
2024-03-26 magnet Бременские музыканты (2023) WEB-DLRip-AVC от MegaPeer 1.83 GB ↑ 0 ↓ 0
2024-03-26 magnet Бременские музыканты (2023) WEB-DLRip-AVC от ExKinoRay 1.46 GB ↑ 1 ↓ 1

Комментарии


Зарегистрируйтесь чтобы добавить комментарий
Торрент клиент
byTorrent - программа для загрузки торрент-файлов.

Скачать byTorrent.exe (1,5 МБ)

Скачать byTorrent.zip (0,6 МБ)

Поддержи torrent.by
российских рублей
(300 российских рублей это 4$)

Обратная связь rss

End game ©