↑↓torrent.by
Поиск
Логин:  Регистрация
Пароль:

Уборщица / The Cleaning Lady [03x01-03 из 10] (2024) WEB-DL 1080p от Jaskier | P

download Скачать торрент-файл   magnet Магнитная ссылка Размер: 6.02 GB Добавлен: 2024-03-26 17:00
Пиры будут получены из сети DHT
Последний сидер был замечен 2024-04-09 06:30
Информация о фильме Название: Уборщица Оригинальное название: The Cleaning Lady Год выхода: 2024 Жанр: триллер, драма, криминал Режиссер: Милан Чейлов, Тимоти Басфилд, Марисоль Торрес В ролях: Элоди Юнг, Адан Канто, Оливер Хадсон, Марта Миллан, Шон Лью, Ева Де Доминичи, Челси Фрай, Лиза Вейл, Айвен Шоу, Навид Негабан, Гарольд Фиш, Шива Негар, Эзоди Гейджер О фильме: Врач Тони вынуждена приехать из Филиппин в США ради спасения сына, которому диагностировали редкое заболевание. Женщина ищет донора, работает уборщицей и случайно становится свидетельницей убийства. Так Тони получает работу чистильщицы у местного авторитета – ей нужно прибирать места преступлений и скрывать улики. Страна: США Студия: Amore & Vita Productions, Laughing Monkey Productions, Fox Entertainment Продолжительность: ~00:43:00 Перевод: Профессиональный (многоголосый закадровый) Jaskier Файл Кодек: MKV Качество: WEB-DL 1080p Видео: AVC, 1920x960 (2.000), 23.976 fps, ~5779 kbps Звук: Аудио 1: Русский, AC-3, 48 kHz, 6 ch, 384 kbps | Jaskier Аудио 2: Английский, E-AC-3, 48 kHz, 6 ch, 640 kbps Субтитры: Английские (Full, SDH) Семпл
[+] MediaInfo General Unique ID : 190712650969522338722195341455712609116 (0x8F79EBA7B1D541639B6D4D7DD6F0635C) Complete name : E:TorrentThe.Cleaning.Lady.US.S03.1080p.AMZN.WEB-DL.DDP5.1.H.264-JaskierThe.Cleaning.Lady.US.S03E01.Arman.1080p.AMZN.WEB-DL.DDP5.1.H.264-Jaskier.mkv Format : Matroska Format version : Version 4 File size : 2.10 GiB Duration : 43 min 21 s Overall bit rate : 6 941 kb/s Encoded date : UTC 2024-03-09 10:53:23 Writing application : mkvmerge v6.6.0 ('The Edge Of The In Between') built on Dec 1 2013 17:55:00 Writing library : libebml v1.3.0 + libmatroska v1.4.1 Video ID : 1 Format : AVC Format/Info : Advanced Video Codec Format profile : High@L4 Format settings : CABAC / 4 Ref Frames Format settings, CABAC : Yes Format settings, Reference frames : 4 frames Codec ID : V_MPEG4/ISO/AVC Duration : 43 min 21 s Bit rate mode : Constant Bit rate : 5 779 kb/s Nominal bit rate : 10 000 kb/s Width : 1 920 pixels Height : 960 pixels Display aspect ratio : 2.000 Frame rate mode : Constant Frame rate : 23.976 (24000/1001) FPS Color space : YUV Chroma subsampling : 4:2:0 Bit depth : 8 bits Scan type : Progressive Bits/(Pixel*Frame) : 0.131 Stream size : 1.75 GiB (83%) Language : English Default : Yes Forced : No Color range : Limited Color primaries : BT.709 Transfer characteristics : BT.709 Matrix coefficients : BT.709 Statistics Tags Issue : mkvmerge v82.0 ('I'm The President') 64-bit / mkvmerge v6.6.0 ('The Edge Of The In Between') built on Dec 1 2013 17:55:00 2024-03-09 10:53:23 FromStats_BitRate : 5914914 FromStats_Duration : 00:43:21.808000000 FromStats_FrameCount : 62381 FromStats_StreamSize : 1923683824 Audio #1 ID : 2 Format : AC-3 Format/Info : Audio Coding 3 Commercial name : Dolby Digital Codec ID : A_AC3 Duration : 43 min 21 s Bit rate mode : Constant Bit rate : 384 kb/s Channel(s) : 6 channels Channel layout : L R C LFE Ls Rs Sampling rate : 48.0 kHz Frame rate : 31.250 FPS (1536 SPF) Compression mode : Lossy Stream size : 119 MiB (6%) Title : Jaskier Language : Russian Service kind : Complete Main Default : Yes Forced : No Audio #2 ID : 3 Format : E-AC-3 Format/Info : Enhanced AC-3 Commercial name : Dolby Digital Plus Codec ID : A_EAC3 Duration : 43 min 21 s Bit rate mode : Constant Bit rate : 640 kb/s Channel(s) : 6 channels Channel layout : L R C LFE Ls Rs Sampling rate : 48.0 kHz Frame rate : 31.250 FPS (1536 SPF) Compression mode : Lossy Stream size : 199 MiB (9%) Title : Original Language : English Service kind : Complete Main Default : No Forced : No Statistics Tags Issue : mkvmerge v82.0 ('I'm The President') 64-bit / mkvmerge v6.6.0 ('The Edge Of The In Between') built on Dec 1 2013 17:55:00 2024-03-09 10:53:23 FromStats_BitRate : 640000 FromStats_Duration : 00:43:21.792000000 FromStats_FrameCount : 81306 FromStats_StreamSize : 208143360 Text #1 ID : 4 Format : UTF-8 Codec ID : S_TEXT/UTF8 Codec ID/Info : UTF-8 Plain Text Language : English Default : No Forced : No Statistics Tags Issue : mkvmerge v82.0 ('I'm The President') 64-bit / mkvmerge v6.6.0 ('The Edge Of The In Between') built on Dec 1 2013 17:55:00 2024-03-09 10:53:23 FromStats_BitRate : 71 FromStats_Duration : 00:42:34.677000000 FromStats_FrameCount : 700 FromStats_StreamSize : 22803 Text #2 ID : 5 Format : UTF-8 Codec ID : S_TEXT/UTF8 Codec ID/Info : UTF-8 Plain Text Title : SDH Language : English Default : No Forced : No Statistics Tags Issue : mkvmerge v82.0 ('I'm The President') 64-bit / mkvmerge v6.6.0 ('The Edge Of The In Between') built on Dec 1 2013 17:55:00 2024-03-09 10:53:23 FromStats_BitRate : 79 FromStats_Duration : 00:43:12.590000000 FromStats_FrameCount : 880 FromStats_StreamSize : 25767 Menu 00:00:00.000 : en:Scene 1 00:43:16.000 : en:End Credits
[+] Скриншоты
Релиз от: Jaskier

Всего файлов в раздаче: 3 
The.Cleaning.Lady.US.S03E01.Arman.1080p.AMZN.WEB-DL.DDP5.1.H.264-Jaskier.mkv2.10 GB
The.Cleaning.Lady.US.S03E02.For.My.Son.1080p.AMZN.WEB-DL.DDP5.1.H.264-Jaskier.mkv2.18 GB
The.Cleaning.Lady.US.S03E03.El.Camino.del.Diablo.1080p.AMZN.WEB-DL.DDP5.1.H.264-Jaskier.mkv1.74 GB

Похожие раздачи по запросу - Уборщица
2024-03-16 magnet Уборщица / The Cleaning Lady [03x01-02 из 10] (2024) WEB-DL 1080p от Jaskier | P 4.28 GB ↑ 0 ↓ 0

Комментарии


Зарегистрируйтесь чтобы добавить комментарий
Торрент клиент
byTorrent - программа для загрузки торрент-файлов.

Скачать byTorrent.exe (1,5 МБ)

Скачать byTorrent.zip (0,6 МБ)

Поддержи torrent.by
российских рублей
(300 российских рублей это 4$)

Обратная связь rss

End game ©