↑↓torrent.by
Поиск
Логин:  Регистрация
Пароль:

Африканец / L'africain (1983) BDRip 720p от New-Team | D, P

download Скачать торрент-файл   magnet Магнитная ссылка Размер: 2.94 GB Добавлен: 2024-03-26 17:00
Пиры будут получены из сети DHT
Последний сидер был замечен 2024-03-27 11:59
Страна: Франция Производство: Renn Productions Жанр: комедия, приключения Год выпуска: 1983 Продолжительность: 01:36:33 Перевод: Профессиональный (дублированный) (Советский дубляж) + Профессиональный (многоголосый закадровый) (DVD R5) Оригинальная аудиодорожка: французский Cубтитры: русский Режиссер: Филипп Де Брока / Philippe de Broca В ролях: Катрин Денёв, Филипп Нуаре, Жан-Франсуа Балмер, Жак Франсуа, Жан Бенгиги, Жозеф Момо, Вивиан Рид, Пьер Майкл, Гордон Хит, Рэймонд Акилон... Подробнее об актерах Роли дублировали: Галина Чигинская, Владимир Трошин, Геннадий Богачёв, Александр Демьяненко, Кирилл Лавров... Описание: Фильм снят в экзотических местах Африки, куда прилетает героиня фильма, чтобы изучить возможность строительства отеля для туристов. Там она встречает своего мужа, летчика, охраняющего заповедник от браконьеров. Они расстались несколько лет назад, но так и не смогли забыть друг друга. Он делает все возможное, чтобы воспрепятствовать уничтожению этого нетронутого уголка природы. Нешуточное столкновение интересов, забавные приключения и настоящая опасность возрождают старую любовь с новой силой... Исходник: BDRemux 1080p Тип релиза: BDRip 720p Контейнер: MKV Видео: 1280x546 (16:9), 23,976 кадров/сек, x264 core 164 ~ 2976 кбит/сек, 0.179 бит/пиксель Аудио: 48 кГц, Dolby Digital AC3 5.1, 384 кбит/сек DUB Аудио: 48 кГц, Dolby Digital AC3 5.1, 384 кбит/сек MVO Аудио: 48 кГц, Dolby Digital AC3 5.1, 384 кбит/сек французский Субтитры: Blu-ray/PGS/SUP Оригинальная навигация по главам: есть Раздача от:
[+] MediaInfo Общее Полное имя : Африканец.1983.BDRip720p__by_AVP_Studio.mkv Формат : Matroska Версия формата : Version 4 Размер файла : 2,94 Гбайт Продолжительность : 1 ч. 40 м. Общий поток : 4 168 Кбит/сек Частота кадров : 23,976 кадра/сек Дата кодирования : 2023-07-20 06:53:46 UTC Программа кодирования : mkvmerge v73.0.0 ('25 or 6 to 4') 64-bit Библиотека кодирования : libebml v1.4.4 + libmatroska v1.7.1 Видео Идентификатор : 1 Формат : AVC Формат/Информация : Advanced Video Codec Профиль формата : High@L4.1 Настройки формата : CABAC / 8 Ref Frames Параметр CABAC формата : Да Параметр RefFrames формата : 8 кадров Идентификатор кодека : V_MPEG4/ISO/AVC Продолжительность : 1 ч. 40 м. Битрейт : 2 976 Кбит/сек Ширина : 1 280 пикселей Высота : 546 пикселей Соотношение сторон : 2,35:1 Режим частоты кадров : Постоянный Частота кадров : 23,976 (24000/1001) кадра/сек Цветовое пространство : YUV Субдискретизация насыщенности : 4:2:0 Битовая глубина : 8 бит Тип развёртки : Прогрессивная Бит/(Пиксели*Кадры) : 0.178 Размер потока : 2,10 Гбайт (71%) Заголовок : Исходник BDRemux Библиотека кодирования : x264 core 164 r3081 19856cc Настройки программы : cabac=1 / ref=8 / deblock=1:-3:-3 / analyse=0x3:0x133 / me=umh / subme=10 / psy=1 / psy_rd=1.00:0.00 / mixed_ref=1 / me_range=32 / chroma_me=1 / trellis=2 / 8x8dct=1 / cqm=0 / deadzone=21,11 / fast_pskip=1 / chroma_qp_offset=-2 / threads=6 / lookahead_threads=1 / sliced_threads=0 / nr=0 / decimate=0 / interlaced=0 / bluray_compat=0 / constrained_intra=0 / bframes=8 / b_pyramid=2 / b_adapt=2 / b_bias=0 / direct=3 / weightb=1 / open_gop=0 / weightp=2 / keyint=240 / keyint_min=24 / scenecut=40 / intra_refresh=0 / rc=2pass / mbtree=0 / bitrate=2976 / ratetol=1.0 / qcomp=0.60 / qpmin=0 / qpmax=69 / qpstep=4 / cplxblur=20.0 / qblur=0.5 / ip_ratio=1.40 / pb_ratio=1.30 / aq=1:1.00 Язык : French Default : Да Forced : Нет Аудио #1 Идентификатор : 2 Формат : AC-3 Формат/Информация : Audio Coding 3 Коммерческое название : Dolby Digital Идентификатор кодека : A_AC3 Продолжительность : 1 ч. 40 м. Вид битрейта : Постоянный Битрейт : 384 Кбит/сек Каналы : 6 каналов Channel layout : L R C LFE Ls Rs Частота : 48,0 КГц Частота кадров : 31,250 кадров/сек (1536 SPF) Метод сжатия : С потерями Размер потока : 277 Мбайт (9%) Заголовок : Профессиональный (дублированный) Язык : Russian Default : Да Forced : Нет Аудио #2 Идентификатор : 3 Формат : AC-3 Формат/Информация : Audio Coding 3 Коммерческое название : Dolby Digital Идентификатор кодека : A_AC3 Продолжительность : 1 ч. 40 м. Вид битрейта : Постоянный Битрейт : 384 Кбит/сек Каналы : 6 каналов Channel layout : L R C LFE Ls Rs Частота : 48,0 КГц Частота кадров : 31,250 кадров/сек (1536 SPF) Метод сжатия : С потерями Размер потока : 277 Мбайт (9%) Заголовок : Профессиональный (многоголосый закадровый) DVD R5 Язык : Russian Default : Да Forced : Нет Аудио #3 Идентификатор : 4 Формат : AC-3 Формат/Информация : Audio Coding 3 Коммерческое название : Dolby Digital Идентификатор кодека : A_AC3 Продолжительность : 1 ч. 40 м. Вид битрейта : Постоянный Битрейт : 384 Кбит/сек Каналы : 6 каналов Channel layout : L R C LFE Ls Rs Частота : 48,0 КГц Частота кадров : 31,250 кадров/сек (1536 SPF) Метод сжатия : С потерями Размер потока : 277 Мбайт (9%) Заголовок : Оригинал Язык : French Default : Да Forced : Нет Текст Идентификатор : 5 Формат : PGS Идентификатор кодека : S_HDMV/PGS Идентификатор кодека/Информация : Picture based subtitle format used on BDs/HD-DVDs Продолжительность : 1 ч. 37 м. Битрейт : 41,7 Кбит/сек Частота кадров : 0,285 кадр/сек Count of elements : 1672 Размер потока : 29,2 Мбайт (1%) Заголовок : PGS Blu-ray Язык : Russian Default : Нет Forced : Нет Меню 00:01:47.732 : ru: Глава 01 00:10:28.252 : ru: Глава 02 00:14:42.965 : ru: Глава 03 00:16:17.643 : ru: Глава 04 00:26:49.607 : ru: Глава 05 00:27:09.461 : ru: Глава 06 00:40:42.940 : ru: Глава 07 00:46:52.226 : ru: Глава 08 01:02:55.188 : ru: Глава 09 01:11:28.117 : ru: Глава 10 01:14:24.001 : ru: Глава 11 01:18:20.028 : ru: Глава 12 01:26:16.004 : ru: Глава 13 01:33:14.964 : ru: Глава 14 01:38:12.344 : ru: Глава 15 01:39:40.349 : ru: Глава 16
[+] Скриншоты

Всего файлов в раздаче: 1 
Африканец.1983.BDRip720p_[New-team]_by_AVP_Studio.mkv2.94 GB

Комментарии


Зарегистрируйтесь чтобы добавить комментарий
Торрент клиент
byTorrent - программа для загрузки торрент-файлов.

Скачать byTorrent.exe (1,5 МБ)

Скачать byTorrent.zip (0,6 МБ)

Поддержи torrent.by
российских рублей
(300 российских рублей это 4$)

Обратная связь rss

End game ©