↑↓torrent.by
Поиск
Логин:  Регистрация
Пароль:

Разборка в Гранде / Showdown at the Grand (2023) BDRip-AVC от DoMiNo & селезень | D

download Скачать торрент-файл   magnet Магнитная ссылка Размер: 1.87 GB Добавлен: 2024-03-26 17:00
Пиры будут получены из сети DHT
Последний сидер был замечен 2024-03-27 11:59
Информация о фильме Название: Разборка в Гранде Оригинальное название: Showdown at the Grand Год выхода: 2023 Жанр: Боевик, комедия Режиссер: Орсон Обловитц В ролях: Терренс Ховард, Дольф Лундгрен, Аманда Ригетти, Джон Сэвэдж, Пайпер Курда, Майк Фергюсон, Джон Скларофф, Эрик Бреннер, Клемми Дагдэйл, Джозеф Интеглия Описание: Владелец кинотеатра Джордж Фуллер должен защищать свой семейный бизнес от корпоративных застройщиков вместе с легендарной звездой триллеров Клодом Люком Холлидеем, который теперь должен изо всех сил бороться с корпоративной жадностью во имя искусства. Страна: США Студия: Benaroya Pictures, BondIt, Christian de Gallegos Films Продолжительность: 01:32:18 Перевод: Профессиональный (полное дублирование) | Zone Vision Субтитры: Английские (Full, SDH) Файл Формат: Matroska Качество: BDRip-AVC Видео: 1024x428 at 23.976 fps, x264@L4.1, ~2063 kbps Аудио 1: AC3, 6 ch, ~384 kbps - | Русский | Аудио 2: AC3, 6 ch, ~448 kbps - | Английский | Формат субтитров: softsub (SRT) ***Рип от: -=DoMiNo=-
[+] M/Ix264 : frame I:873 Avg QP:17.54 size: 59990 x264 : frame P:25981 Avg QP:18.92 size: 23717 x264 : frame B:105924 Avg QP:20.94 size: 7174 General Unique ID : 229022495411128635569326140824344509365 (0xAC4C20D0BC685AC142BE4B2F09F2BBB5) Complete name : R:Showdown.at.the.Grand.2023.DUB.BDRip.x264.seleZen.mkv Format : Matroska Format version : Version 4 File size : 1.87 GiB Duration : 1 h 32 min Overall bit rate : 2 898 kb/s Frame rate : 23.976 FPS Movie name : Showdown.at.the.Grand.2023.DUB.BDRip.x264.seleZen Encoded date : 2024-03-26 09:18:22 UTC Writing application : mkvmerge v83.0 ('Circle Of Friends') 64-bit Writing library : libebml v1.4.5 + libmatroska v1.7.1 Cover : Yes Attachments : cover.jpg / small_cover.jpg Video ID : 1 Format : AVC Format/Info : Advanced Video Codec Format profile : High@L4.1 Format settings : CABAC / 14 Ref Frames Format settings, CABAC : Yes Format settings, Reference : 14 frames Codec ID : V_MPEG4/ISO/AVC Duration : 1 h 32 min Bit rate : 2 064 kb/s Width : 1 024 pixels Height : 428 pixels Display aspect ratio : 2.40:1 Frame rate mode : Constant Frame rate : 23.976 (24000/1001) FPS Color space : YUV Chroma subsampling : 4:2:0 Bit depth : 8 bits Scan type : Progressive Bits/(Pixel*Frame) : 0.196 Stream size : 1.33 GiB (71%) Title : -=DoMiNo=- Writing library : x264 core 164 r3190 7ed753b Encoding settings : cabac=1 / ref=14 / deblock=1:-2:-2 / analyse=0x3:0x133 / me=umh / subme=10 / psy=1 / psy_rd=1.05:0.03 / mixed_ref=1 / me_range=32 / chroma_me=1 / trellis=2 / 8x8dct=1 / cqm=0 / deadzone=21,11 / fast_pskip=0 / chroma_qp_offset=-3 / threads=13 / lookahead_threads=3 / sliced_threads=0 / nr=0 / decimate=0 / interlaced=0 / bluray_compat=0 / constrained_intra=0 / bframes=14 / b_pyramid=2 / b_adapt=2 / b_bias=0 / direct=1 / weightb=1 / open_gop=0 / weightp=2 / keyint=250 / keyint_min=23 / scenecut=40 / intra_refresh=0 / rc_lookahead=60 / rc=crf / mbtree=0 / crf=19.3 / qcomp=0.60 / qpmin=0 / qpmax=69 / qpstep=4 / vbv_maxrate=50000 / vbv_bufsize=62500 / crf_max=0.0 / nal_hrd=none / filler=0 / ip_ratio=1.36 / pb_ratio=1.30 / aq=3:0.80 Language : English Default : Yes Forced : No Color range : Limited Color primaries : BT.709 Transfer characteristics : BT.709 Matrix coefficients : BT.709 Audio #1 ID : 2 Format : AC-3 Format/Info : Audio Coding 3 Commercial name : Dolby Digital Codec ID : A_AC3 Duration : 1 h 32 min Bit rate mode : Constant Bit rate : 384 kb/s Channel(s) : 6 channels Channel layout : L R C LFE Ls Rs Sampling rate : 48.0 kHz Frame rate : 31.250 FPS (1536 SPF) Compression mode : Lossy Stream size : 253 MiB (13%) Title : Dub -Zone Vision Language : Russian Service kind : Complete Main Default : Yes Forced : No Audio #2 ID : 3 Format : AC-3 Format/Info : Audio Coding 3 Commercial name : Dolby Digital Codec ID : A_AC3 Duration : 1 h 32 min Bit rate mode : Constant Bit rate : 448 kb/s Channel(s) : 6 channels Channel layout : L R C LFE Ls Rs Sampling rate : 48.0 kHz Frame rate : 31.250 FPS (1536 SPF) Compression mode : Lossy Stream size : 296 MiB (15%) Title : Original Language : English Service kind : Complete Main Default : No Forced : No Text #1 ID : 4 Format : UTF-8 Codec ID : S_TEXT/UTF8 Codec ID/Info : UTF-8 Plain Text Duration : 1 h 25 min Bit rate : 46 b/s Frame rate : 0.187 FPS Count of elements : 958 Stream size : 29.3 KiB (0%) Title : Full Language : English Default : No Forced : No Text #2 ID : 5 Format : UTF-8 Codec ID : S_TEXT/UTF8 Codec ID/Info : UTF-8 Plain Text Duration : 1 h 31 min Bit rate : 54 b/s Frame rate : 0.226 FPS Count of elements : 1241 Stream size : 36.5 KiB (0%) Title : SDH Language : English Default : No Forced : No Menu 00:00:00.000 : Chapter 01 00:07:43.546 : Chapter 02 00:15:12.620 : Chapter 03 00:21:45.346 : Chapter 04 00:27:52.671 : Chapter 05 00:34:09.256 : Chapter 06 00:40:55.370 : Chapter 07 00:48:11.639 : Chapter 08 00:57:02.085 : Chapter 09 01:03:33.268 : Chapter 10 01:09:28.122 : Chapter 11 01:18:54.855 : Chapter 12
Релиз: Присоединяйся к: Кликай на баннеры.

Всего файлов в раздаче: 1 
Showdown.at.the.Grand.2023.DUB.BDRip.x264.seleZen.mkv1.87 GB

Похожие раздачи по запросу - Разборка
2024-03-27 magnet Разборка в Гранде / Showdown at the Grand (2023) BDRemux 1080p | D 23.57 GB ↑ 0 ↓ 0
2024-03-27 magnet Разборка в Гранде / Showdown at the Grand (2023) BDRip от toxics & селезень | D 1.46 GB ↑ 0 ↓ 0
2024-03-27 magnet Разборка в Гранде / Showdown at the Grand (2023) HDRip от ExKinoRay | D 743.00 MB ↑ 0 ↓ 0
2024-03-26 magnet Разборка в Гранде / Showdown at the Grand (2023) BDRip 1080p от MegaPeer | D 2К11.28 GB ↑ 0 ↓ 0
2024-03-26 magnet Разборка в Гранде / Showdown at the Grand (2023) BDRip от MegaPeer | D 1.46 GB ↑ 0 ↓ 0
2024-03-26 magnet Разборка в Гранде / Showdown at the Grand (2023) BDRip 720p от MegaPeer | D 4.80 GB ↑ 0 ↓ 0

Комментарии


Зарегистрируйтесь чтобы добавить комментарий
Торрент клиент
byTorrent - программа для загрузки торрент-файлов.

Скачать byTorrent.exe (1,5 МБ)

Скачать byTorrent.zip (0,6 МБ)

Поддержи torrent.by
российских рублей
(300 российских рублей это 4$)

Обратная связь rss

End game ©