↑↓torrent.by
Поиск
Логин:  Регистрация
Пароль:

Разборка в Гранде / Showdown at the Grand (2023) BDRip 720p от MegaPeer | D

download Скачать торрент-файл   magnet Магнитная ссылка Размер: 4.80 GB Добавлен: 2024-03-26 17:00
Пиры будут получены из сети DHT
Последний сидер был замечен сегодня в 00:15
Информация Название: Разборка в Гранде Оригинальное название: Showdown at the Grand Год выхода: 2023 Жанр: Боевик, комедия Режиссер: Орсон Обловитц В ролях: Терренс Ховард, Дольф Лундгрен, Аманда Ригетти, Джон Сэвэдж, Пайпер Курда, Майк Фергюсон, Джон Скларофф, Эрик Бреннер, Клемми Дагдэйл, Джозеф Интеглия Описание: Владелец кинотеатра Джордж Фуллер должен защищать свой семейный бизнес от корпоративных застройщиков вместе с легендарной звездой триллеров Клодом Люком Холлидеем, который теперь должен изо всех сил бороться с корпоративной жадностью во имя искусства. Страна: США Студия: Benaroya Pictures, BondIt, Christian de Gallegos Films Продолжительность: 01:32:18 Перевод: Профессиональный (полное дублирование) | Zone Vision Файл Качество: BDRip 720p Исходник: Showdown.at.the.Grand.2023.BluRay.1080p.REMUX.AVC.DTS-HD.MA.5.1-LEGi0N Формат: MKV Кодек: MPEG-4 AVC Видео: 1280x536 (2.40:1), 23.976 fps, MPEG-4 AVC ~ 6417 Kbps avg, 0.390 bit/pixel Аудио: AC3, 48 kHz, 6 ch, ~384.00 kbps avg | русский | DUB | Аудио: AC3, 48 kHz, 6 ch, ~640.00 kbps avg | английский | Субтитры: Английские (Full, SDH)
[+] Инфо-файлОбщее Уникальный идентификатор : 237168960367711585590499885444232493648 (0xB26D148C418869C1B6584C79FEF5BA50) Полное имя : Showdown.at.the.Grand.2023.720p.BluRay.DD.5.1.x264-MegaPeer.mkv Формат : Matroska Версия формата : Version 4 Размер файла : 4,80 Гбайт Продолжительность : 1 ч. 32 м. Общий поток : 7 442 Кбит/сек Частота кадров : 23,976 кадра/сек Название фильма : Разборка в Гранде / Showdown at the Grand (2023) от stillet@MegaPeer Дата кодирования : 2024-03-26 05:36:38 UTC Программа кодирования : mkvmerge v15.0.0 ('Duel with the Devil') 64-bit Библиотека кодирования : libebml v1.3.5 + libmatroska v1.4.5 Обложка : Yes Attachments : cover.jpg Видео Идентификатор : 1 Формат : AVC Формат/Информация : Advanced Video Codec Профиль формата : High@L4.1 Настройки формата : CABAC / 11 Ref Frames Параметр CABAC формата : Да Параметр RefFrames формата : 11 кадров Идентификатор кодека : V_MPEG4/ISO/AVC Продолжительность : 1 ч. 32 м. Битрейт : 6 417 Кбит/сек Ширина : 1 280 пикселей Высота : 536 пикселей Соотношение сторон : 2,40:1 Режим частоты кадров : Постоянный Частота кадров : 23,976 (24000/1001) кадра/сек Цветовое пространство : YUV Субдискретизация насыщенности : 4:2:0 Битовая глубина : 8 бит Тип развёртки : Прогрессивная Бит/(Пиксели*Кадры) : 0.390 Размер потока : 4,14 Гбайт (86%) Библиотека кодирования : x264 core 164 r3156+57M stillet t_mod_New Настройки программы : cabac=1 / ref=11 / deblock=1:-3:-3 / analyse=0x3:0x113 / me=umh / subme=10 / psy=1 / fade_compensate=0.00 / psy_rd=1.03:0.02 / mixed_ref=1 / me_range=32 / chroma_me=1 / trellis=2 / 8x8dct=1 / cqm=0 / deadzone=21,11 / fast_pskip=0 / chroma_qp_offset=-3 / threads=12 / lookahead_threads=3 / sliced_threads=0 / nr=0 / decimate=0 / interlaced=0 / bluray_compat=0 / constrained_intra=0 / fgo=0 / bframes=11 / b_pyramid=2 / b_adapt=2 / b_bias=0 / direct=3 / weightb=1 / open_gop=0 / weightp=2 / keyint=240 / keyint_min=24 / scenecut=40 / intra_refresh=0 / rc_lookahead=40 / rc=2pass / mbtree=0 / bitrate=6417 / ratetol=1.0 / qcomp=0.60 / qpmin=0:0:0 / qpmax=69:69:69 / qpstep=4 / cplxblur=20.0 / qblur=0.5 / vbv_maxrate=50000 / vbv_bufsize=62500 / nal_hrd=none / filler=0 / ip_ratio=1.40 / pb_ratio=1.30 / aq=1:1.10 / aq-sensitivity=10.00 / aq-factor=1.00:1.00:1.00 / aq2=0 / aq3=0 Язык : English Default : Да Forced : Нет Аудио #1 Идентификатор : 2 Формат : AC-3 Формат/Информация : Audio Coding 3 Коммерческое название : Dolby Digital Идентификатор кодека : A_AC3 Продолжительность : 1 ч. 32 м. Вид битрейта : Постоянный Битрейт : 384 Кбит/сек Каналы : 6 каналов Channel layout : L R C LFE Ls Rs Частота : 48,0 КГц Частота кадров : 31,250 кадров/сек (1536 SPF) Метод сжатия : С потерями Размер потока : 253 Мбайт (5%) Заголовок : DUB | Zone Vision Язык : Russian Service kind : Complete Main Default : Да Forced : Нет Аудио #2 Идентификатор : 3 Формат : AC-3 Формат/Информация : Audio Coding 3 Коммерческое название : Dolby Digital Идентификатор кодека : A_AC3 Продолжительность : 1 ч. 32 м. Вид битрейта : Постоянный Битрейт : 640 Кбит/сек Каналы : 6 каналов Channel layout : L R C LFE Ls Rs Частота : 48,0 КГц Частота кадров : 31,250 кадров/сек (1536 SPF) Метод сжатия : С потерями Размер потока : 423 Мбайт (9%) Язык : English Service kind : Complete Main Default : Нет Forced : Нет Текст #1 Идентификатор : 4 Формат : UTF-8 Идентификатор кодека : S_TEXT/UTF8 Идентификатор кодека/Информация : UTF-8 Plain Text Продолжительность : 1 ч. 25 м. Битрейт : 46 бит/сек Частота кадров : 0,187 кадр/сек Count of elements : 958 Размер потока : 29,3 Кбайт (0%) Заголовок : Full Язык : English Default : Нет Forced : Нет Текст #2 Идентификатор : 5 Формат : UTF-8 Идентификатор кодека : S_TEXT/UTF8 Идентификатор кодека/Информация : UTF-8 Plain Text Продолжительность : 1 ч. 31 м. Битрейт : 51 бит/сек Частота кадров : 0,228 кадр/сек Count of elements : 1254 Размер потока : 34,9 Кбайт (0%) Заголовок : SDH Язык : English Default : Нет Forced : Нет Меню 00:00:00.000 : Chapter 01 00:07:43.546 : Chapter 02 00:15:12.620 : Chapter 03 00:21:45.346 : Chapter 04 00:27:52.671 : Chapter 05 00:34:09.256 : Chapter 06 00:40:55.370 : Chapter 07 00:48:11.639 : Chapter 08 00:57:02.085 : Chapter 09 01:03:33.268 : Chapter 10 01:09:28.122 : Chapter 11 01:18:54.855 : Chapter 12
Релиз:

Всего файлов в раздаче: 1 
Showdown.at.the.Grand.2023.720p.BluRay.DD.5.1.x264-MegaPeer.mkv4.80 GB

Похожие раздачи по запросу - Разборка
2024-03-27 magnet Разборка в Гранде / Showdown at the Grand (2023) BDRemux 1080p | D 23.57 GB ↑ 0 ↓ 0
2024-03-27 magnet Разборка в Гранде / Showdown at the Grand (2023) BDRip от toxics & селезень | D 1.46 GB ↑ 0 ↓ 0
2024-03-27 magnet Разборка в Гранде / Showdown at the Grand (2023) HDRip от ExKinoRay | D 743.00 MB ↑ 0 ↓ 0
2024-03-26 magnet Разборка в Гранде / Showdown at the Grand (2023) BDRip 1080p от MegaPeer | D 2К11.28 GB ↑ 0 ↓ 0
2024-03-26 magnet Разборка в Гранде / Showdown at the Grand (2023) BDRip от MegaPeer | D 1.46 GB ↑ 0 ↓ 0
2024-03-26 magnet Разборка в Гранде / Showdown at the Grand (2023) BDRip-AVC от DoMiNo & селезень | D 1.87 GB ↑ 0 ↓ 0

Комментарии


Зарегистрируйтесь чтобы добавить комментарий
Торрент клиент
byTorrent - программа для загрузки торрент-файлов.

Скачать byTorrent.exe (1,5 МБ)

Скачать byTorrent.zip (0,6 МБ)

Поддержи torrent.by
российских рублей
(300 российских рублей это 4$)

Обратная связь rss

End game ©