↑↓torrent.by
Поиск
Логин:  Регистрация
Пароль:

Разборка в Гранде / Showdown at the Grand (2023) HDRip от ExKinoRay | D

download Скачать торрент-файл   magnet Магнитная ссылка Размер: 743.00 MB Добавлен: 2024-03-27 05:00
Пиры будут получены из сети DHT
Последний сидер был замечен 2024-03-27 20:50
Информация о фильме Название: Разборка в Гранде Оригинальное название: Showdown at the Grand Год выхода: 2023 Жанр: боевик, комедия Режиссер: Орсон Обловитц В ролях: Терренс Ховард, Дольф Лундгрен, Аманда Ригетти, Джон Сэвэдж, Пайпер Курда, Майк Фергюсон, Джон Скларофф, Эрик Бреннер, Клемми Дагдэйл, Джозеф Интеглия О фильме: Владелец кинотеатра Джордж Фуллер должен защищать свой семейный бизнес от корпоративных застройщиков вместе с легендарной звездой триллеров Клодом Люком Холлидеем, который теперь должен изо всех сил бороться с корпоративной жадностью во имя искусства.... Страна: США Студия: Benaroya Pictures, BondIt, Christian de Gallegos Films Продолжительность: 01:32:18 Перевод: Профессиональный дублирование - Zone Vision Файл Кодек: XviD Качество: HDRip Видео: 688x288 (2.39:1), 23.976 fps, XviD build 67 ~985 kbps avg, 0.21 bit/pixel Звук: 48 kHz, MP3, 2 ch, ~128 kbps avg Субтитры: Отсутствуют
[+] MediaInfoGeneral Complete name : D:Разборка в Гранде.2023.HDRip.by.ExKinoRay & Shkiper.avi Format : AVI Format/Info : Audio Video Interleave Format settings : BitmapInfoHeader / WaveFormatEx File size : 743 MiB Duration : 1 h 32 min Overall bit rate : 1 125 kb/s Frame rate : 23.976 FPS Movie name : Showdown.at.the.Grand.2023.HDRip.by.ExKinoRay & Shkiper Writing application : Lavf58.29.100 Video ID : 0 Format : MPEG-4 Visual Format profile : Advanced Simple@L5 Format settings : BVOP1 / Custom Matrix Format settings, BVOP : 1 Format settings, QPel : No Format settings, GMC : No warppoints Format settings, Matrix : Custom Codec ID : XVID Codec ID/Hint : XviD Duration : 1 h 32 min Bit rate : 985 kb/s Width : 688 pixels Height : 288 pixels Display aspect ratio : 2.40:1 Frame rate : 23.976 (24000/1001) FPS Color space : YUV Chroma subsampling : 4:2:0 Bit depth : 8 bits Scan type : Progressive Compression mode : Lossy Bits/(Pixel*Frame) : 0.207 Stream size : 650 MiB (88%) Writing library : XviD 67 Audio ID : 1 Format : MPEG Audio Format version : Version 1 Format profile : Layer 3 Format settings : Joint stereo Codec ID : 55 Codec ID/Hint : MP3 Duration : 1 h 32 min Bit rate mode : Constant Bit rate : 128 kb/s Channel(s) : 2 channels Sampling rate : 48.0 kHz Compression mode : Lossy Stream size : 84.5 MiB (11%) Alignment : Aligned on interleaves Interleave, duration : 24 ms (0.58 video frame) Title : DUB | Zone Vision Writing library : LAME3.100ª
[+] Скриншоты
Релиз от: Рип изготовил:

Всего файлов в раздаче: 1 
Разборка в Гранде.2023.HDRip.by.ExKinoRay & Shkiper.avi743.00 MB

Похожие раздачи по запросу - Разборка
2024-03-27 magnet Разборка в Гранде / Showdown at the Grand (2023) BDRemux 1080p | D 23.57 GB ↑ 0 ↓ 0
2024-03-27 magnet Разборка в Гранде / Showdown at the Grand (2023) BDRip от toxics & селезень | D 1.46 GB ↑ 0 ↓ 0
2024-03-26 magnet Разборка в Гранде / Showdown at the Grand (2023) BDRip 1080p от MegaPeer | D 2К11.28 GB ↑ 0 ↓ 0
2024-03-26 magnet Разборка в Гранде / Showdown at the Grand (2023) BDRip от MegaPeer | D 1.46 GB ↑ 0 ↓ 0
2024-03-26 magnet Разборка в Гранде / Showdown at the Grand (2023) BDRip-AVC от DoMiNo & селезень | D 1.87 GB ↑ 0 ↓ 0
2024-03-26 magnet Разборка в Гранде / Showdown at the Grand (2023) BDRip 720p от MegaPeer | D 4.80 GB ↑ 0 ↓ 0

Комментарии


Зарегистрируйтесь чтобы добавить комментарий
Торрент клиент
byTorrent - программа для загрузки торрент-файлов.

Скачать byTorrent.exe (1,5 МБ)

Скачать byTorrent.zip (0,6 МБ)

Поддержи torrent.by
российских рублей
(300 российских рублей это 4$)

Обратная связь rss

End game ©