↑↓torrent.by
Поиск
Логин:  Регистрация
Пароль:

Байки на Хэллоуин / Satanic Hispanics (2022) BDRip-AVC от DoMiNo & селезень | D

download Скачать торрент-файл   magnet Магнитная ссылка Размер: 1.98 GB Добавлен: 2024-03-27 05:00
Пиры будут получены из сети DHT
Последний сидер был замечен 2024-03-27 10:22
Информация о фильме Название: Байки на Хэллоуин Оригинальное название: Satanic Hispanics Год выхода: 2022 Жанр: Ужасы Режиссер: Алехандро Брюгес, Майк Мендес, Джиджи Сол Герреро, Эдуардо Санчес, Демиан Рунья В ролях: Эфрен Рамирес, Грег Гранберг, Соня Эдди, Ломбардо Бойяр, Марк Стегер, Алехандро Брюгес, Томас Хейли, Шон Келлер, Тихомир Дукич О фильме: Полиция города Эль Пасо прибывает на место преступления, больше похожем на бойню — в доме, обнаружены 27 мертвецов и один чудом выживший бродяга. Доставленный в участок, он подвергается допросу двух скептично настроенных следователей. Незнакомец называет себя «Путешественником» и утверждает, что обладает даром видеть и проникать в другие миры. По его словам, учиненная резня не является результатом рук человеческих, и что в ближайшие часы подобная участь ждет всех присутствующих, если он не будет освобожден. В качестве доказательства он приводит зловещие и причудливые истории своего соприкосновения со злом. Пока детективы колеблются, роковой час приближается… Выпущено: США / Epic Pictures Продолжительность: 01:52:41 Перевод: Дублированный | Студия Позитив Субтитры: Русские (Forced), Английские Файл Формат: Matroska Качество: BDRip-AVC Видео: 1024x436 at 23.976 fps, x264@L4.1, ~1875 kbps Аудио 1: AC3, 2 ch, ~192 kbps - | Русский | Аудио 2: AC3, 6 ch, ~448 kbps - | Английский | Формат субтитров: softsub (SRT) ***Рип от: -=DoMiNo=-
[+] M/Ix264 : frame I:1363 Avg QP:13.09 size: 51136 x264 : frame P:34166 Avg QP:15.34 size: 21266 x264 : frame B:126574 Avg QP:17.44 size: 6231 General Unique ID : 121007231783542269316020384479344181212 (0x5B09252672E8B1A334ADFDDB35CDBFDC) Complete name : R:Satanic.Hispanics.2022.DUB.BDRip.x264.seleZen.mkv Format : Matroska Format version : Version 4 File size : 1.98 GiB Duration : 1 h 52 min Overall bit rate : 2 518 kb/s Frame rate : 23.976 FPS Movie name : Satanic.Hispanics.2022.DUB.BDRip.x264.seleZen Encoded date : 2024-03-26 18:45:58 UTC Writing application : mkvmerge v83.0 ('Circle Of Friends') 64-bit Writing library : libebml v1.4.5 + libmatroska v1.7.1 Cover : Yes Attachments : cover.jpg / small_cover.jpg Video ID : 1 Format : AVC Format/Info : Advanced Video Codec Format profile : High@L4.1 Format settings : CABAC / 14 Ref Frames Format settings, CABAC : Yes Format settings, Reference : 14 frames Codec ID : V_MPEG4/ISO/AVC Duration : 1 h 52 min Bit rate : 1 875 kb/s Width : 1 024 pixels Height : 436 pixels Display aspect ratio : 2.35:1 Frame rate mode : Constant Frame rate : 23.976 (24000/1001) FPS Color space : YUV Chroma subsampling : 4:2:0 Bit depth : 8 bits Scan type : Progressive Bits/(Pixel*Frame) : 0.175 Stream size : 1.48 GiB (74%) Title : -=DoMiNo=- Writing library : x264 core 164 r3190 7ed753b Encoding settings : cabac=1 / ref=14 / deblock=1:-2:-2 / analyse=0x3:0x133 / me=umh / subme=10 / psy=1 / psy_rd=1.05:0.04 / mixed_ref=1 / me_range=32 / chroma_me=1 / trellis=2 / 8x8dct=1 / cqm=0 / deadzone=21,11 / fast_pskip=0 / chroma_qp_offset=-3 / threads=14 / lookahead_threads=3 / sliced_threads=0 / nr=0 / decimate=0 / interlaced=0 / bluray_compat=0 / constrained_intra=0 / bframes=12 / b_pyramid=2 / b_adapt=2 / b_bias=0 / direct=1 / weightb=1 / open_gop=0 / weightp=2 / keyint=250 / keyint_min=23 / scenecut=40 / intra_refresh=0 / rc_lookahead=60 / rc=crf / mbtree=0 / crf=18.0 / qcomp=0.60 / qpmin=0 / qpmax=69 / qpstep=4 / vbv_maxrate=50000 / vbv_bufsize=62500 / crf_max=0.0 / nal_hrd=none / filler=0 / ip_ratio=1.40 / pb_ratio=1.30 / aq=3:0.90 Language : English Default : Yes Forced : No Color range : Limited Color primaries : BT.709 Transfer characteristics : BT.709 Matrix coefficients : BT.709 Audio #1 ID : 2 Format : AC-3 Format/Info : Audio Coding 3 Commercial name : Dolby Digital Codec ID : A_AC3 Duration : 1 h 52 min Bit rate mode : Constant Bit rate : 192 kb/s Channel(s) : 2 channels Channel layout : L R Sampling rate : 48.0 kHz Frame rate : 31.250 FPS (1536 SPF) Compression mode : Lossy Stream size : 155 MiB (8%) Title : Дубляж -Позитив Language : Russian Service kind : Complete Main Default : Yes Forced : Yes Audio #2 ID : 3 Format : AC-3 Format/Info : Audio Coding 3 Commercial name : Dolby Digital Codec ID : A_AC3 Duration : 1 h 52 min Bit rate mode : Constant Bit rate : 448 kb/s Channel(s) : 6 channels Channel layout : L R C LFE Ls Rs Sampling rate : 48.0 kHz Frame rate : 31.250 FPS (1536 SPF) Compression mode : Lossy Stream size : 361 MiB (18%) Title : Original Language : English Service kind : Complete Main Default : No Forced : No Text #1 ID : 4 Format : UTF-8 Codec ID : S_TEXT/UTF8 Codec ID/Info : UTF-8 Plain Text Duration : 1 h 40 min Bit rate : 1 b/s Frame rate : 0.003 FPS Count of elements : 20 Stream size : 925 Bytes (0%) Title : Forced Language : Russian Default : No Forced : No Text #2 ID : 5 Format : UTF-8 Codec ID : S_TEXT/UTF8 Codec ID/Info : UTF-8 Plain Text Duration : 1 h 44 min Bit rate : 12 b/s Frame rate : 0.052 FPS Count of elements : 325 Stream size : 9.25 KiB (0%) Title : Forced Language : English Default : No Forced : No Text #3 ID : 6 Format : UTF-8 Codec ID : S_TEXT/UTF8 Codec ID/Info : UTF-8 Plain Text Duration : 1 h 47 min Bit rate : 50 b/s Frame rate : 0.210 FPS Count of elements : 1353 Stream size : 39.6 KiB (0%) Title : Full Language : English Default : No Forced : No Text #4 ID : 7 Format : UTF-8 Codec ID : S_TEXT/UTF8 Codec ID/Info : UTF-8 Plain Text Duration : 1 h 47 min Bit rate : 57 b/s Frame rate : 0.252 FPS Count of elements : 1621 Stream size : 45.2 KiB (0%) Title : SDH Language : English Default : No Forced : No Menu 00:00:00.000 : en:Chapter 1 00:08:00.480 : en:Chapter 2 00:30:06.471 : en:Chapter 3 00:34:44.415 : en:Chapter 4 00:54:20.924 : en:Chapter 5 00:55:56.478 : en:Chapter 6 01:15:07.377 : en:Chapter 7 01:19:26.094 : en:Chapter 8 01:40:30.899 : en:Chapter 9 01:48:02.017 : en:Chapter 10 01:52:41.004 : en:Chapter 11
Релиз: Присоединяйся к: Кликай на баннеры.

Всего файлов в раздаче: 1 
Satanic.Hispanics.2022.DUB.BDRip.x264.seleZen.mkv1.98 GB

Похожие раздачи по запросу - Байки
2024-03-28 magnet Байки на Хэллоуин / Satanic Hispanics (2022) BDRip от toxics & селезень | D 1.45 GB ↑ 0 ↓ 0
2024-03-27 magnet Байки на Хэллоуин / Satanic Hispanics (2022) BDRip 1080p от MegaPeer | D 7.88 GB ↑ 0 ↓ 0
2024-03-27 magnet Байки на Хэллоуин / Satanic Hispanics (2022) BDRip от MegaPeer | D 1.46 GB ↑ 0 ↓ 0

Комментарии


Зарегистрируйтесь чтобы добавить комментарий
Торрент клиент
byTorrent - программа для загрузки торрент-файлов.

Скачать byTorrent.exe (1,5 МБ)

Скачать byTorrent.zip (0,6 МБ)

Поддержи torrent.by
российских рублей
(300 российских рублей это 4$)

Обратная связь rss

End game ©