↑↓torrent.by
Поиск
Логин:  Регистрация
Пароль:

Особенности национальной охоты (1995) WEB-DLRip 1080p

download Скачать торрент-файл   magnet Магнитная ссылка Размер: 10.74 GB Добавлен: 2024-03-27 05:00
Пиры будут получены из сети DHT
Последний сидер был замечен 2024-03-30 15:39
Название: Особенности национальной охоты Год выхода: 1995 Производство: Россия / Ленфильм Жанр: Комедия Перевод: Не требуется Продолжительность: 01:36:55 Режиссёр: Александр Рогожкин В ролях: Вилле Хаапасало, Алексей Булдаков, Виктор Бычков, Семён Стругачев, Сергей Куприянов, Сергей Русскин, Сергей Гусинский, Игорь Сергеев, Игорь Добряков, Юрий Макусинский Описание: Молодой финский специалист по охоте уговаривает своего русского друга помочь ему поучаствовать в настоящей русской охоте, дабы познакомиться с нравами и привычками русских охотников. Бесконечные застолья с последующими приключениями поражают его, но все же финн не жалеет о потерянном времени. Формат: MKV Качество: WEB-DLRip 1080p | 4K Rip Видео: MPEG4/AVC, 1920x1080, 15304 Kbps, 0.308 бит/(Пиксели*Кадры), 24.000 fps Аудио: AAC, 6 ch, 48.0 kHz, 553 Kbps Субтитры: Русские, английские Дополнительная информация: В рипе убраны тормоза в виде дублирующих кадров, восстановлена исходная частота кадров. 4К на поверку оказался растянутым 1920х1080. Уменьшение разрешения до 1080р и ремасштабирование до 4K на визуальном качестве изображения никак не сказывается
[+] MediainfoGeneral Unique ID : 76628552344054626382512367633780742278 (0x39A61F52AFBED9BD424AF3EDD6609886) Complete name : Особенности национальной охоты 4K Rip 1080p.mkv Format : Matroska Format version : Version 4 / Version 2 File size : 10.7 GiB Duration : 1 h 36 min Overall bit rate : 15.9 Mb/s Encoded date : UTC 2024-03-21 07:24:46 Writing application : mkvmerge v41.0.0 ('Smarra') 32-bit Writing library : libebml v1.3.9 + libmatroska v1.5.2 Video ID : 1 Format : AVC Format/Info : Advanced Video Codec Format profile : High@L4.1 Format settings : CABAC / 4 Ref Frames Format settings, CABAC : Yes Format settings, ReFrames : 4 frames Codec ID : V_MPEG4/ISO/AVC Duration : 1 h 36 min Bit rate : 15.3 Mb/s Width : 1 920 pixels Height : 1 080 pixels Display aspect ratio : 16:9 Frame rate mode : Constant Frame rate : 24.000 FPS Color space : YUV Chroma subsampling : 4:2:0 Bit depth : 8 bits Scan type : Progressive Bits/(Pixel*Frame) : 0.308 Stream size : 10.4 GiB (96%) Writing library : x264 core 164 r3156+57M dac90dd t_mod_New Encoding settings : cabac=1 / ref=4 / deblock=1:-3:-3 / analyse=0x3:0x133 / me=umh / subme=10 / psy=1 / fade_compensate=0.00 / psy_rd=1.00:0.00 / mixed_ref=1 / me_range=24 / chroma_me=1 / trellis=2 / 8x8dct=1 / cqm=0 / deadzone=21,11 / fast_pskip=0 / chroma_qp_offset=-2 / threads=12 / lookahead_threads=2 / sliced_threads=0 / nr=0 / decimate=0 / interlaced=0 / bluray_compat=0 / stitchable=1 / constrained_intra=0 / fgo=0 / bframes=8 / b_pyramid=2 / b_adapt=2 / b_bias=0 / direct=3 / weightb=1 / open_gop=0 / weightp=2 / keyint=240 / keyint_min=24 / scenecut=40 / intra_refresh=0 / rc_lookahead=80 / rc=crf / mbtree=1 / crf=19.0000 / qcomp=0.75 / qpmin=0:0:0 / qpmax=69:69:69 / qpstep=4 / vbv_maxrate=62500 / vbv_bufsize=78125 / crf_max=0.0 / nal_hrd=none / filler=0 / ip_ratio=1.40 / aq=3:1.00 / aq-sensitivity=10.00 / aq-factor=1.00:1.00:1.00:1.00 / aq2=0 / aq3=0 Language : Russian Default : Yes Forced : No Color range : Limited Color primaries : BT.709 Transfer characteristics : BT.709 Matrix coefficients : BT.709 Audio ID : 2 Format : AAC Format/Info : Advanced Audio Codec Format profile : LC Codec ID : A_AAC-2 Duration : 1 h 36 min Bit rate : 553 kb/s Channel(s) : 6 channels Channel positions : Front: L C R, Side: L R, LFE Sampling rate : 48.0 kHz Frame rate : 46.875 FPS (1024 SPF) Compression mode : Lossy Stream size : 384 MiB (3%) Language : Russian Default : Yes Forced : No Text #1 ID : 3 Format : UTF-8 Codec ID : S_TEXT/UTF8 Codec ID/Info : UTF-8 Plain Text Duration : 1 h 33 min Bit rate : 65 b/s Count of elements : 757 Stream size : 44.9 KiB (0%) Language : Russian Default : No Forced : No Text #2 ID : 4 Format : UTF-8 Codec ID : S_TEXT/UTF8 Codec ID/Info : UTF-8 Plain Text Duration : 1 h 36 min Bit rate : 44 b/s Count of elements : 772 Stream size : 31.7 KiB (0%) Language : English Default : No Forced : No
[+] Скриншоты
[+] Скриншоты сравнения Слева Особенности национальной охоты, справа этот

Всего файлов в раздаче: 1 
Особенности национальной охоты 4KRip 1080p.mkv10.74 GB

Похожие раздачи по запросу - Особенности
2024-03-03 magnet Александр Генис - Княгиня Гришка: особенности национального застолья (2019) MP3 256.52 MB ↑ 0 ↓ 0

Комментарии


Зарегистрируйтесь чтобы добавить комментарий
Торрент клиент
byTorrent - программа для загрузки торрент-файлов.

Скачать byTorrent.exe (1,5 МБ)

Скачать byTorrent.zip (0,6 МБ)

Поддержи torrent.by
российских рублей
(300 российских рублей это 4$)

Обратная связь rss

End game ©