↑↓torrent.by
Поиск
Логин:  Регистрация
Пароль:

Разборка в Гранде / Showdown at the Grand (2023) BDRemux 1080p | D

download Скачать торрент-файл   magnet Магнитная ссылка Размер: 23.57 GB Раздают: 0 Качают: 1 Добавлен: 2024-03-27 11:00
Пиры будут получены из сети DHT
Последний сидер был замечен 2024-03-29 06:29
Информация о фильме Название: Разборка в Гранде Оригинальное название: Showdown at the Grand Год выхода: 2023 Жанр: Боевик, комедия Режиссер: Орсон Обловитц В ролях: Терренс Ховард, Дольф Лундгрен, Аманда Ригетти, Джон Сэвэдж, Пайпер Курда, Майк Фергюсон, Джон Скларофф, Эрик Бреннер, Клемми Дагдэйл, Джозеф Интеглия О фильме: Владелец кинотеатра Джордж Фуллер должен защищать свой семейный бизнес от корпоративных застройщиков вместе с легендарной звездой триллеров Клодом Люком Холлидеем, который теперь должен изо всех сил бороться с корпоративной жадностью во имя искусства. Страна: США Студия: Benaroya Pictures, BondIt, Christian de Gallegos Films Продолжительность: 01:32:18 Перевод: Профессиональный (дублированный) | Zone Vision Файл Формат: MKV Качество: BDRemux 1080p Видео: MPEG-4 AVC, 1920x1080 (16:9), 23.976 fps, ~ 34.0 Mbps Аудио 1: Dolby Digital Audio, 5.1 ch, 48 kHz, 384 kbps | DUB, Zone Vision Аудио 2: DTS-HD MA Audio, 5.1 ch, 48 kHz, 2916 kbps | Original Субтитры: Английские (Full, SDH)
[+] Скриншоты
[+] Инфо-файлGeneral Unique ID : 171523585067813544214744871491659811733 (0x810A3DA955655BC2CBCE97571E4ACB95) Complete name : Showdown.At.The.Grand.2023.BDRemux.1080p.mkv Format : Matroska Format version : Version 4 File size : 23.6 GiB Duration : 1 h 32 min Overall bit rate mode : Variable Overall bit rate : 36.6 Mb/s Frame rate : 23.976 FPS Movie name : Showdown at the Grand 2023 BDRemux 1080p Encoded date : 2024-03-26 13:04:58 UTC Writing application : mkvmerge v79.0 ('Funeral Pyres') 64-bit Writing library : libebml v1.4.4 + libmatroska v1.7.1 Video ID : 1 Format : AVC Format/Info : Advanced Video Codec Format profile : High@L4.1 Format settings : CABAC / 4 Ref Frames Format settings, CABAC : Yes Format settings, Reference frames : 4 frames Format settings, Slice count : 4 slices per frame Codec ID : V_MPEG4/ISO/AVC Duration : 1 h 32 min Bit rate mode : Constant Bit rate : 34.0 Mb/s Width : 1 920 pixels Height : 1 080 pixels Display aspect ratio : 16:9 Frame rate mode : Constant Frame rate : 23.976 (24000/1001) FPS Color space : YUV Chroma subsampling : 4:2:0 Bit depth : 8 bits Scan type : Progressive Bits/(Pixel*Frame) : 0.684 Time code of first frame : 01:00:00:00 Stream size : 21.4 GiB (91%) Language : English Default : Yes Forced : No Audio #1 ID : 2 Format : AC-3 Format/Info : Audio Coding 3 Commercial name : Dolby Digital Codec ID : A_AC3 Duration : 1 h 32 min Bit rate mode : Constant Bit rate : 384 kb/s Channel(s) : 6 channels Channel layout : L R C LFE Ls Rs Sampling rate : 48.0 kHz Frame rate : 31.250 FPS (1536 SPF) Compression mode : Lossy Stream size : 253 MiB (1%) Title : Russian Dub Zone Vision Language : Russian Service kind : Complete Main Default : Yes Forced : No Audio #2 ID : 3 Format : DTS XLL Format/Info : Digital Theater Systems Commercial name : DTS-HD Master Audio Codec ID : A_DTS Duration : 1 h 32 min Bit rate mode : Variable Bit rate : 2 916 kb/s Channel(s) : 6 channels Channel layout : C L R Ls Rs LFE Sampling rate : 48.0 kHz Frame rate : 93.750 FPS (512 SPF) Bit depth : 24 bits Compression mode : Lossless Stream size : 1.88 GiB (8%) Title : English Original Language : English Default : No Forced : No Text #1 ID : 4 Format : UTF-8 Codec ID : S_TEXT/UTF8 Codec ID/Info : UTF-8 Plain Text Duration : 1 h 25 min Bit rate : 46 b/s Frame rate : 0.187 FPS Count of elements : 958 Stream size : 29.3 KiB (0%) Title : English full Language : English Default : No Forced : No Text #2 ID : 5 Format : UTF-8 Codec ID : S_TEXT/UTF8 Codec ID/Info : UTF-8 Plain Text Duration : 1 h 31 min Bit rate : 51 b/s Frame rate : 0.228 FPS Count of elements : 1254 Stream size : 34.9 KiB (0%) Title : English SDH Language : English Default : No Forced : No Menu 00:00:00.000 : Chapter 01 00:07:43.546 : Chapter 02 00:15:12.620 : Chapter 03 00:21:45.346 : Chapter 04 00:27:52.671 : Chapter 05 00:34:09.256 : Chapter 06 00:40:55.370 : Chapter 07 00:48:11.639 : Chapter 08 00:57:02.085 : Chapter 09 01:03:33.268 : Chapter 10 01:09:28.122 : Chapter 11 01:18:54.855 : Chapter 12

Всего файлов в раздаче: 1 
Showdown.At.The.Grand.2023.BDRemux.1080p.mkv23.57 GB

Похожие раздачи по запросу - Разборка
2024-03-27 magnet Разборка в Гранде / Showdown at the Grand (2023) BDRip от toxics & селезень | D 1.46 GB ↑ 0 ↓ 1
2024-03-27 magnet Разборка в Гранде / Showdown at the Grand (2023) HDRip от ExKinoRay | D 743.00 MB ↑ 0 ↓ 0
2024-03-26 magnet Разборка в Гранде / Showdown at the Grand (2023) BDRip 1080p от MegaPeer | D 2К11.28 GB ↑ 0 ↓ 0
2024-03-26 magnet Разборка в Гранде / Showdown at the Grand (2023) BDRip от MegaPeer | D 1.46 GB ↑ 1 ↓ 0
2024-03-26 magnet Разборка в Гранде / Showdown at the Grand (2023) BDRip-AVC от DoMiNo & селезень | D 1.87 GB ↑ 0 ↓ 0
2024-03-26 magnet Разборка в Гранде / Showdown at the Grand (2023) BDRip 720p от MegaPeer | D 4.80 GB ↑ 0 ↓ 0

Комментарии


Зарегистрируйтесь чтобы добавить комментарий
Торрент клиент
byTorrent - программа для загрузки торрент-файлов.

Скачать byTorrent.exe (1,5 МБ)

Скачать byTorrent.zip (0,6 МБ)

Поддержи torrent.by
российских рублей
(300 российских рублей это 4$)

Обратная связь rss

End game ©