↑↓torrent.by
Поиск
Логин:  Регистрация
Пароль:

Серая сова / Grey Owl (1999) WEB-DL 1080p | P, P2

download Скачать торрент-файл   magnet Магнитная ссылка Размер: 10.80 GB Добавлен: 2024-03-27 11:00
Пиры будут получены из сети DHT
Последний сидер был замечен 2024-04-02 13:47
Информация о фильме Название: Серая сова Оригинальное название: Grey Owl Год выхода: 1999 Жанр: Драма, вестерн, биография, реальные события Режиссер: Ричард Аттенборо В ролях: Пирс Броснан, Стюарт Бик, Власта Врана, Анни Галипо, Нил Кроетч, Серж Уд, Питер Колвер, Натаниель Арканд, Жак Люссье, Ли-Рой Джейкобс, ... О фильме: Британец Арчи Белани считал своим домом дикие леса Канады. Известный среди местных индейцев и охотников под именем Серая Сова, Арчи был одиночкой, и сам избрал этот путь, опасный и непредсказуемый. Здесь он был хозяином, способным постоять за себя и прийти на помощь попавшим в беду… Страна: Великобритания, Канада Студия: Beaver Productions, Ajawaan Productions, Canadian Film or Video Production Tax Credit (CPTC) Продолжительность: 01:53:21 Перевод: Профессиональный многоголосый, профессиональный двухголосый, авторский Файл Кодек: h.264 Качество: WEB-DL Видео: MPEG-4 AVC, 12.7 Мбит/с, 1920x816, 25 кадр/с Звук: Аудио1 : Русский (AC3, 2 ch, 192 Кбит/с) -Профессиональный многоголосый т/к ?; Аудио2 : Русский (AC3, 2 ch, 192 Кбит/с) -Профессиональный двухголосый DVD R5; Аудио3 : Русский (AC3, 2 ch, 192 Кбит/с) -Авторский Гаврилов; Аудио4 : Английский (AC3, 6 ch, 448 Кбит/с)-Оригинал. Субтитры: Русские (full), Английские (full / SDH) / SRT Доп. информация о релизе: За основу взят релиз Grey.Owl.1999.1080p.AMZN.UK.WEB-DL.DD5.1.H.264.SHD13.mkv 10.65 ГБ (11436139922) от SpaceHD13 -спасибо. Добавлена звуковая дорожка Аудио 1 предварительно мной синхронизированная под этот WEB-DL (1080p) любезно мне предоставленная от zero -спасибо.
[+] MediaInfoОбщее Уникальный идентификатор : 46695105883273471669834022360350709074 (0x23212677F18AA2FE5C0C630B2D23D552) Полное имя : D:фильмы на раздачуСерая сова (1999).1080p.AMZN.WEB-DL.DD5.1.H.264.mkv Формат : Matroska Версия формата : Version 4 Размер файла : 10,8 Гбайт Продолжительность : 1 ч. 53 м. Режим общего битрейта : Переменный Общий поток : 13,6 Мбит/сек Название фильма : Grey.Owl.1999.1080p.AMZN.UK.WEB-DL.DD5.1.H.264.SHD13 Дата кодирования : UTC 2024-03-23 21:59:58 Программа кодирования : mkvmerge v52.0.0 ('Secret For The Mad') 64-bit Библиотека кодирования : libebml v1.4.1 + libmatroska v1.6.2 Обложка : Yes Attachments : cover.jpg IMDB : tt0128239 TMDB : movie/41807 Видео Идентификатор : 1 Формат : AVC Формат/Информация : Advanced Video Codec Профиль формата : High@L4 Настройки формата : CABAC / 4 Ref Frames Параметр CABAC формата : Да Параметр RefFrames формата : 4 кадра Идентификатор кодека : V_MPEG4/ISO/AVC Продолжительность : 1 ч. 52 м. Вид битрейта : Переменный Битрейт : 12,7 Мбит/сек Максимальный битрейт : 15,0 Мбит/сек Ширина : 1 920 пикселей Высота : 816 пикселей Соотношение сторон : 2,35:1 Режим частоты кадров : Постоянный Частота кадров : 25,000 кадров/сек Цветовое пространство : YUV Субдискретизация насыщенности : 4:2:0 Битовая глубина : 8 бит Тип развёртки : Прогрессивная Бит/(Пиксели*Кадры) : 0.324 Размер потока : 9,99 Гбайт (92%) Заголовок : Grey.Owl.1999.1080p.AMZN.UK.WEB-DL.DD5.1.H.264.SHD13 Библиотека кодирования : x264 core 148 r2623 d5b2374 Настройки программы : cabac=1 / ref=4 / deblock=1:-1:-1 / analyse=0x3:0x133 / me=umh / subme=9 / psy=1 / psy_rd=1.00:0.15 / mixed_ref=1 / me_range=24 / chroma_me=1 / trellis=2 / 8x8dct=1 / cqm=0 / deadzone=21,11 / fast_pskip=1 / chroma_qp_offset=-3 / threads=25 / lookahead_threads=4 / sliced_threads=0 / nr=150 / decimate=1 / interlaced=0 / bluray_compat=0 / constrained_intra=0 / bframes=8 / b_pyramid=2 / b_adapt=2 / b_bias=0 / direct=3 / weightb=1 / open_gop=0 / weightp=2 / keyint=125 / keyint_min=63 / scenecut=0 / intra_refresh=0 / rc_lookahead=125 / rc=crf / mbtree=1 / crf=18.0 / qcomp=0.60 / qpmin=0 / qpmax=69 / qpstep=4 / vbv_maxrate=15000 / vbv_bufsize=31250 / crf_max=0.0 / nal_hrd=vbr / filler=0 / ip_ratio=1.40 / aq=3:1.00 Язык : English Default : Да Forced : Нет Цветовой диапазон : Limited Основные цвета : BT.709 Характеристики трансфера : BT.709 Коэффициенты матрицы : BT.709 Аудио #1 Идентификатор : 2 Формат : AC-3 Формат/Информация : Audio Coding 3 Коммерческое название : Dolby Digital Идентификатор кодека : A_AC3 Продолжительность : 1 ч. 52 м. Вид битрейта : Постоянный Битрейт : 192 Кбит/сек Каналы : 2 канала Channel layout : L R Частота : 48,0 КГц Частота кадров : 31,250 кадров/сек (1536 SPF) Метод сжатия : С потерями Размер потока : 155 Мбайт (1%) Заголовок : MVO Язык : Russian Service kind : Complete Main Default : Да Forced : Нет Аудио #2 Идентификатор : 3 Формат : AC-3 Формат/Информация : Audio Coding 3 Коммерческое название : Dolby Digital Идентификатор кодека : A_AC3 Продолжительность : 1 ч. 53 м. Вид битрейта : Постоянный Битрейт : 192 Кбит/сек Каналы : 2 канала Channel layout : L R Частота : 48,0 КГц Частота кадров : 31,250 кадров/сек (1536 SPF) Метод сжатия : С потерями Размер потока : 156 Мбайт (1%) Заголовок : DVO-DVD R5 Язык : Russian Service kind : Complete Main Default : Нет Forced : Нет Аудио #3 Идентификатор : 4 Формат : AC-3 Формат/Информация : Audio Coding 3 Коммерческое название : Dolby Digital Идентификатор кодека : A_AC3 Продолжительность : 1 ч. 52 м. Вид битрейта : Постоянный Битрейт : 192 Кбит/сек Каналы : 2 канала Channel layout : L R Частота : 48,0 КГц Частота кадров : 31,250 кадров/сек (1536 SPF) Метод сжатия : С потерями Размер потока : 155 Мбайт (1%) Заголовок : AVO-Гаврилов Язык : Russian Service kind : Complete Main Default : Нет Forced : Нет Аудио #4 Идентификатор : 5 Формат : AC-3 Формат/Информация : Audio Coding 3 Коммерческое название : Dolby Digital Идентификатор кодека : A_AC3 Продолжительность : 1 ч. 52 м. Вид битрейта : Постоянный Битрейт : 448 Кбит/сек Каналы : 6 каналов Channel layout : L R C LFE Ls Rs Частота : 48,0 КГц Частота кадров : 31,250 кадров/сек (1536 SPF) Метод сжатия : С потерями Размер потока : 362 Мбайт (3%) Язык : English Service kind : Complete Main Default : Нет Forced : Нет Текст #1 Идентификатор : 6 Формат : UTF-8 Идентификатор кодека : S_TEXT/UTF8 Идентификатор кодека/Информация : UTF-8 Plain Text Продолжительность : 1 ч. 46 м. Битрейт : 74 бит/сек Частота кадров : 0,147 кадр/сек Count of elements : 936 Размер потока : 58,1 Кбайт (0%) Язык : Russian Default : Нет Forced : Нет Текст #2 Идентификатор : 7 Формат : UTF-8 Идентификатор кодека : S_TEXT/UTF8 Идентификатор кодека/Информация : UTF-8 Plain Text Продолжительность : 1 ч. 51 м. Битрейт : 42 бит/сек Частота кадров : 0,165 кадр/сек Count of elements : 1098 Размер потока : 34,9 Кбайт (0%) Язык : English Default : Нет Forced : Нет Текст #3 Идентификатор : 8 Формат : UTF-8 Идентификатор кодека : S_TEXT/UTF8 Идентификатор кодека/Информация : UTF-8 Plain Text Продолжительность : 1 ч. 51 м. Битрейт : 45 бит/сек Частота кадров : 0,175 кадр/сек Count of elements : 1166 Размер потока : 36,9 Кбайт (0%) Язык : English Default : Нет Forced : Нет Меню 00:00:00.000 : en:Looking for Archie 00:04:37.161 : en:Goldmine 00:08:01.161 : en:Pony 00:13:21.680 : en:The Father 00:15:46.761 : en:Off to the Woods 00:17:48.600 : en:Trapping 00:24:08.640 : en:Icy Experience 00:28:35.480 : en:A Love Begins 00:31:35.480 : en:Money Problems 00:33:45.960 : en:A New Mother 00:37:56.560 : en:Old Indian Way 00:41:28.560 : en:Where Did He Go? 00:44:11.320 : en:No More Trapping 00:49:01.400 : en:On Stage 00:52:56.641 : en:An Offer 00:57:45.361 : en:Visitors 01:01:08.241 : en:A Story Told 01:04:00.001 : en:Talk to the World 01:09:49.881 : en:United 01:12:55.920 : en:London 01:18:09.361 : en:The Old Home 01:21:52.320 : en:Childhood Memories 01:23:49.841 : en:Questions 01:26:55.881 : en:Back in Canada 01:29:49.681 : en:The Truth 01:35:44.801 : en:Council of Chiefs 01:39:31.761 : en:Another Tracker 01:41:49.641 : en:Listen
[+] Скриншоты
Релиз от:

Всего файлов в раздаче: 1 
Серая сова (1999).1080p.AMZN.WEB-DL.DD5.1.H.264.mkv10.80 GB

Комментарии


Зарегистрируйтесь чтобы добавить комментарий
Торрент клиент
byTorrent - программа для загрузки торрент-файлов.

Скачать byTorrent.exe (1,5 МБ)

Скачать byTorrent.zip (0,6 МБ)

Поддержи torrent.by
российских рублей
(300 российских рублей это 4$)

Обратная связь rss

End game ©