↑↓torrent.by
Поиск
Логин:  Регистрация
Пароль:

Морозко [01-05 из 08] (2024) WEBRip

download Скачать торрент-файл   magnet Магнитная ссылка Размер: 1.72 GB Добавлен: 2024-03-27 11:00
Пиры будут получены из сети DHT
Последний сидер был замечен 2024-03-27 16:45
Информация о фильме Название: Морозко Год выхода: 2024 Жанр: Комедия, драма Режиссер: Юлия Лысова В ролях: Аглая Тарасова, Никита Ефремов, Алиса Руденко, Николай Наумов, Виктор Логинов, Андрей Федорцов, Гоша Куценко, Геннадий Масленников, Евгений Городницкий, Елизавета Гончаренко, Николай Орловский, Иван Пищулин, Егор Анисимов, Артем Гайдуков, Владислав Ценёв, Сергей Кирпичёнок, Ион Даналаки, Денис Волков, Денис Яковлев, Сергей Кузнецов, Елена Архипова, Михаил Локшин, Иван Левин, Алина Ходжеванова, Елена Морозова, Сергей Лешуков, Полина Куценко, Егор Найдович О фильме: 33-летняя Рита работает на телевидении и производит впечатление успешной девушки. Однако на самом деле, в её душе — пустота. Работа не нравится, семьи нет, друзей и близких — тоже. Не говоря о мужчине — одиночество Риты скрашивает только чучело хорька, которое она держит на почётном месте в съемной квартире. Безжалостный диагноз, о котором она узнаёт, казалось бы, должен окончательно убить все надежды на счастье. Но именно он становится отправной точкой к её исцелению, избавлению от страхов и поиску настоящей любви. Страна: Россия Студия: Место силы, Okko, Originals Production Продолжительность: 5 x ~ 00:30:00 Язык: Русский Премьера в Росcии: 06 марта 2024 года Цифровой релиз: 06 марта 2024 года Примечание: Без рекламы Возраст: 18+ Файл Формат: AVI Качество: WEBRip Видео: XviD, ~ 1650 Кбит/с, 720x304 Звук: AC3, 6 ch, 384 Кбит/с Субтитры: Отсутствуют Семпл
[+] Скриншоты
[+] MIОбщее Полное имя : C:UsersAdminDesktopMorozko.S01.2024.WEB-DLRipMorozko.S01.E01.2024.WEB-DLRip.avi Формат : AVI Формат/Информация : Audio Video Interleave Размер файла : 344 Мбайт Продолжительность : 23 м. 34 с. Общий поток : 2 043 Кбит/сек Программа кодирования : Lavf59.16.100 Видео Идентификатор : 0 Формат : MPEG-4 Visual Профиль формата : Advanced Simple@L5 Настройки формата : BVOP1 / Custom Matrix Параметр BVOP формата : 1 Параметр QPel формата : Нет Параметр GMC формата : Без точки перехода Параметр матрицы формата : Выборочная Идентификатор кодека : XVID Идентификатор кодека/Подсказка : XviD Продолжительность : 23 м. 34 с. Битрейт : 1 648 Кбит/сек Ширина : 720 пикселей Высота : 304 пикселя Соотношение сторон : 2,35:1 Частота кадров : 25,000 кадров/сек Цветовое пространство : YUV Субдискретизация насыщенности : 4:2:0 Битовая глубина : 8 бит Тип развёртки : Прогрессивная Метод сжатия : С потерями Бит/(Пиксели*Кадры) : 0.301 Размер потока : 278 Мбайт (81%) Библиотека кодирования : XviD 69 Аудио Идентификатор : 1 Формат : AC-3 Формат/Информация : Audio Coding 3 Коммерческое название : Dolby Digital Идентификатор кодека : 2000 Продолжительность : 23 м. 34 с. Вид битрейта : Постоянный Битрейт : 384 Кбит/сек Каналы : 6 каналов Channel layout : L R C LFE Ls Rs Частота : 48,0 КГц Частота кадров : 31,250 кадров/сек (1536 SPF) Битовая глубина : 16 бит Метод сжатия : С потерями Размер потока : 64,7 Мбайт (19%) Выравнивание : Соединение по промежуткам Продолжительность промежутка : 32 мс. (0,80 видеокадр) Service kind : Complete Main

Всего файлов в раздаче: 5 
Morozko.S01.E01.2024.WEB-DLRip.avi344.46 MB
Morozko.S01.E02.2024.WEB-DLRip.avi339.57 MB
Morozko.S01.E03.2024.WEB-DLRip.avi341.20 MB
Morozko.S01.E04.2024.WEB-DLRip.avi356.66 MB
Morozko.S01.E05.2024.WEB-DLRip.avi374.29 MB

Похожие раздачи по запросу - Морозко
Сегодня magnet Морозко [S01] (2024) WEBRip 720p от ExKinoRay 5.91 GB ↑ 0 ↓ 0
Сегодня magnet Морозко [S01] (2024) WEBRip 2.83 GB ↑ 0 ↓ 0
Сегодня magnet Морозко [S01] (2024) WEBRip 1080p 7.95 GB ↑ 0 ↓ 0
Сегодня magnet Морозко [S01] (2024) WEBRip-AVC от Files-x 2.75 GB ↑ 0 ↓ 1
Сегодня magnet Морозко [S01] (2024) WEBRip-HEVC 2160p | 4K | SDR 16.87 GB ↑ 0 ↓ 0
2024-04-12 magnet Морозко [01х01-07 из 08] (2024) WEBRip-AVC от Generalfilm | КПК 789.81 MB ↑ 0 ↓ 0
2024-04-11 magnet Морозко [01-07 из 08] (2024) WEBRip 2.49 GB ↑ 1 ↓ 0

Комментарии


Зарегистрируйтесь чтобы добавить комментарий
Торрент клиент
byTorrent - программа для загрузки торрент-файлов.

Скачать byTorrent.exe (1,5 МБ)

Скачать byTorrent.zip (0,6 МБ)

Поддержи torrent.by
российских рублей
(300 российских рублей это 4$)

Обратная связь rss

End game ©