↑↓torrent.by
Поиск
Логин:  Регистрация
Пароль:

Честная игра / Fair Play (2023) WEB-DL 2160p | 4K | SDR | D, P

download Скачать торрент-файл   magnet Магнитная ссылка Размер: 16.58 GB Добавлен: 2024-03-27 11:00
Пиры будут получены из сети DHT
Последний сидер был замечен 2024-04-02 22:39
Информация о фильме Название: Честная игра Оригинальное название: Fair Play Год выхода: 2023 Жанр: Триллер, драма, детектив Режиссер: Хлоя Домон В ролях: Фиби Дайневор, Олден Эренрайк, Эдди Марсан, Рич Соммер, Себастьян де Соуса, Сиа Алипур, Ясин Рамуль, Брэндон Бассир, Джэми Уилкс, Фредди Сойер, Джеральдин Сомервилль, Патрик Фишлер, Лорел Лефкоу, Бак Брейтуэйт, Джим Старджон О фильме: Люк и Эмили страстно влюблены и собираются пожениться. Они живут вместе и работают в одной финансовой фирме, где запрещено встречаться с коллегами, поэтому скрывают свои отношения и даже добираются до работы разными маршрутами. После увольнения одного из ведущих менеджеров по офису начинают ходить слухи, что освободившаяся должность достанется Люку, но повышение внезапно получает Эмили. Он становится её подчинённым, и их идеальные отношения дают трещину. «Честная игра» — эротический триллер о власти и эгоизме, которые разрушают любовь. Страна: США Студия: Media Rights Capital, MRC Film, Star Thrower Entertainment Продолжительность: 01:55:02 Перевод 1: Дублированный (неофициальный) | TVShows Перевод 2: Профессиональный (многоголосый) | Jaskier 18+ Файл Формат: MKV Качество: WEB-DL 2160p Видео: MPEG-H HEVC, 3840x2160, 24.000 fps, 18.4 Mbps Аудио 1: AC3, 5.1 ch, 48.0 kHz, 448 kbps | DUB, TVShows Аудио 2: AC3, 5.1 ch, 48.0 kHz, 384 kbps | MVO, Jaskier Аудио 3: E-AC3, 5.1 ch, 48.0 kHz, 640 kbps | DUB, LeDoyen Аудио 4: E-AC3 JOC, 5.1 ch, 48.0 kHz, 768 kbps | Original Субтитры: Русские (Full), украинские, английские
[+] Скриншоты
[+] Инфо-файлИсточник: Fair.Play.2023.2160p.NF.WEB-DL.DDP5.1.Atmos.H.265-FLUX General Unique ID : 220722520141372192620001076899111044978 (0xA60D9C70A9843D29A5ABC58F37290772) Complete name : Fair.Play.2023.SDR.WEB-DL.2160p.mkv Format : Matroska Format version : Version 4 File size : 16.6 GiB Duration : 1 h 55 min Overall bit rate : 20.6 Mb/s Encoded date : UTC 2024-03-26 22:00:31 Writing application : mkvmerge v7.3.0 ('Nouages') 64bit built on Oct 22 2014 18:53:34 Writing library : libebml v1.3.0 + libmatroska v1.4.1 Video ID : 1 Format : HEVC Format/Info : High Efficiency Video Coding Format profile : Main 10@L5@Main Codec ID : V_MPEGH/ISO/HEVC Duration : 1 h 55 min Bit rate : 18.4 Mb/s Width : 3 840 pixels Height : 2 160 pixels Display aspect ratio : 16:9 Frame rate mode : Constant Frame rate : 24.000 FPS Color space : YUV Chroma subsampling : 4:2:0 Bit depth : 10 bits Bits/(Pixel*Frame) : 0.092 Stream size : 14.8 GiB (89%) Language : English Default : Yes Forced : No Color range : Limited Color primaries : BT.709 Transfer characteristics : BT.709 Matrix coefficients : BT.709 Audio #1 ID : 2 Format : AC-3 Format/Info : Audio Coding 3 Commercial name : Dolby Digital Codec ID : A_AC3 Duration : 1 h 53 min Bit rate mode : Constant Bit rate : 448 kb/s Channel(s) : 6 channels Channel layout : L R C LFE Ls Rs Sampling rate : 48.0 kHz Frame rate : 31.250 FPS (1536 SPF) Compression mode : Lossy Stream size : 363 MiB (2%) Title : DUB (TVShows) Language : Russian Service kind : Complete Main Default : Yes Forced : No Audio #2 ID : 3 Format : AC-3 Format/Info : Audio Coding 3 Commercial name : Dolby Digital Codec ID : A_AC3 Duration : 1 h 55 min Bit rate mode : Constant Bit rate : 384 kb/s Channel(s) : 6 channels Channel layout : L R C LFE Ls Rs Sampling rate : 48.0 kHz Frame rate : 31.250 FPS (1536 SPF) Compression mode : Lossy Stream size : 316 MiB (2%) Title : MVO (Jaskier) Language : Russian Service kind : Complete Main Default : No Forced : No Audio #3 ID : 4 Format : E-AC-3 Format/Info : Enhanced AC-3 Commercial name : Dolby Digital Plus Codec ID : A_EAC3 Duration : 1 h 55 min Bit rate mode : Constant Bit rate : 640 kb/s Channel(s) : 6 channels Channel layout : L R C LFE Ls Rs Sampling rate : 48.0 kHz Frame rate : 31.250 FPS (1536 SPF) Compression mode : Lossy Stream size : 527 MiB (3%) Title : DUB (LeDoyen) Language : Ukrainian Service kind : Complete Main Default : No Forced : No Audio #4 ID : 5 Format : E-AC-3 JOC Format/Info : Enhanced AC-3 with Joint Object Coding Commercial name : Dolby Digital Plus with Dolby Atmos Codec ID : A_EAC3 Duration : 1 h 53 min Bit rate mode : Constant Bit rate : 768 kb/s Channel(s) : 6 channels Channel layout : L R C LFE Ls Rs Sampling rate : 48.0 kHz Frame rate : 31.250 FPS (1536 SPF) Compression mode : Lossy Stream size : 622 MiB (4%) Title : Original Language : English Service kind : Complete Main Default : No Forced : No Complexity index : 16 Number of dynamic objects : 15 Bed channel count : 1 channel Bed channel configuration : LFE Text #1 ID : 6 Format : UTF-8 Codec ID : S_TEXT/UTF8 Codec ID/Info : UTF-8 Plain Text Duration : 1 h 52 min Bit rate : 90 b/s Count of elements : 1292 Stream size : 74.7 KiB (0%) Title : Full Language : Russian Default : No Forced : No Text #2 ID : 7 Format : UTF-8 Codec ID : S_TEXT/UTF8 Codec ID/Info : UTF-8 Plain Text Duration : 1 h 52 min Bit rate : 2 b/s Count of elements : 43 Stream size : 1.96 KiB (0%) Title : Forced Language : Ukrainian Default : No Forced : No Text #3 ID : 8 Format : UTF-8 Codec ID : S_TEXT/UTF8 Codec ID/Info : UTF-8 Plain Text Duration : 1 h 52 min Bit rate : 88 b/s Count of elements : 1286 Stream size : 72.7 KiB (0%) Title : Full Language : Ukrainian Default : No Forced : No Text #4 ID : 9 Format : UTF-8 Codec ID : S_TEXT/UTF8 Codec ID/Info : UTF-8 Plain Text Duration : 1 h 49 min Bit rate : 62 b/s Count of elements : 1397 Stream size : 50.0 KiB (0%) Title : Full Language : English Default : No Forced : No Text #5 ID : 10 Format : UTF-8 Codec ID : S_TEXT/UTF8 Codec ID/Info : UTF-8 Plain Text Duration : 1 h 49 min Bit rate : 71 b/s Count of elements : 1650 Stream size : 57.3 KiB (0%) Title : SDH Language : English Default : No Forced : No

Всего файлов в раздаче: 1 
Fair.Play.2023.SDR.WEB-DL.2160p.mkv16.58 GB

Похожие раздачи по запросу - Честная
2024-03-28 magnet Честная игра / Fair Play (2023) WEB-DLRip от toxics & селезень | D, P 2.18 GB ↑ 0 ↓ 1
2023-10-23 magnet Честная игра / Fair Play (2023) WEB-DLRip 720p от DoMiNo & селезень | D, P 3.32 GB ↑ 1 ↓ 0
2023-10-22 magnet Честная игра / Fair Play (2023) WEB-DL 1080p от New-Team | D, P 5.20 GB ↑ 0 ↓ 0

Комментарии


Зарегистрируйтесь чтобы добавить комментарий
Торрент клиент
byTorrent - программа для загрузки торрент-файлов.

Скачать byTorrent.exe (1,5 МБ)

Скачать byTorrent.zip (0,6 МБ)

Поддержи torrent.by
российских рублей
(300 российских рублей это 4$)

Обратная связь rss

End game ©