↑↓torrent.by
Поиск
Логин:  Регистрация
Пароль:

Капкан: Судная ночь / Night of the Hunted [2023, триллер, HDRip-AVC] Dub (Vox Records)

download Скачать торрент-файл   magnet Магнитная ссылка Размер: 1.46 GB Раздают: 2 Качают: 0 Добавлен: il68k 2024-03-27 14:32
Пиры будут получены из сети DHT
Последний сидер был замечен сегодня в 14:55
Капкан: Судная ночь / Night of the Hunted

Страна: США, Франция Жанр: триллер Год выпуска: 2023 Продолжительность: 01:34:39
Перевод: Профессиональный (дублированный) | Vox Records Субтитры: русские (forced) Оригинальная аудиодорожка: нет
Режиссер: Франк Халфун
В ролях: Монайя Абдельрахим, Эббе Андерсен, Дж. Джон Билер, Брайан Брейтер, Бренда Нуньес, Алекс Попович, Айзиа Рейс, Камилль Роу, Джереми Скиппио, Сташа Станич
Описание: Выжить в схватке с беспощадным стрелком, скрывающим свое лицо, очень непросто. У маньяка своя философия, правила жизни и мотивы, по которым он выбирает, кто в эту ночь станет следующей жертвой, а кого следует пощадить.

Качество видео: HDRip-AVC Формат видео: MKV Видео: 1072x448 (2.40:1), 24.000 fps, AVC, ~1825 Kbps, 0.158 bits/pixel Аудио: Russian, 48.0 KHz, AC3, 6 ch, 384 Kbps Релиз от: порошков
[+] MediaInfo
Формат                                   : Matroska
Версия формата                           : Version 4
Размер файла                             : 1,46 Гбайт
Продолжительность                        : 1 ч. 34 м.
Режим общего битрейта                    : Переменный
Общий поток                              : 2 210 Кбит/сек
Частота кадров                           : 24,000 кадра/сек
Название фильма                          : Капкан Судная ночь | Rip by порошков
Дата кодирования                         : 2024-03-26 02:22:26 UTC
Программа кодирования                    : mkvmerge v82.0 ('I'm The President') 64-bit
Библиотека кодирования                   : libebml v1.4.5 + libmatroska v1.7.1

Видео
Идентификатор                            : 1
Формат                                   : AVC
Формат/Информация                        : Advanced Video Codec
Профиль формата                          : High@L4.1
Настройки формата                        : CABAC / 16 Ref Frames
Параметр CABAC формата                   : Да
Параметр RefFrames формата               : 16 кадров
Идентификатор кодека                     : V_MPEG4/ISO/AVC
Продолжительность                        : 1 ч. 34 м.
Вид битрейта                             : Переменный
Битрейт                                  : 1 825 Кбит/сек
Максимальный битрейт                     : 62,5 Мбит/сек
Ширина                                   : 1 072 пикселя
Высота                                   : 448 пикселей
Соотношение сторон                       : 2,39:1
Режим частоты кадров                     : Постоянный
Частота кадров                           : 24,000 кадра/сек
Цветовое пространство                    : YUV
Субдискретизация насыщенности            : 4:2:0
Битовая глубина                          : 8 бит
Тип развёртки                            : Прогрессивная
Бит/(Пиксели*Кадры)                      : 0.158
Размер потока                            : 1,21 Гбайт (83%)
Библиотека кодирования                   : x264 core 164 r3164 c196240
Настройки программы                      : cabac=1 / ref=16 / deblock=1:-1:-1 / analyse=0x3:0x133 / me=umh / subme=10 / psy=1 / psy_rd=1.00:0.15 / mixed_ref=1 / me_range=24 / chroma_me=1 / trellis=2 / 8x8dct=1 / cqm=0 / deadzone=21,11 / fast_pskip=1 / chroma_qp_offset=-3 / threads=16 / lookahead_threads=3 / sliced_threads=0 / nr=0 / decimate=1 / interlaced=0 / bluray_compat=0 / constrained_intra=0 / bframes=16 / b_pyramid=2 / b_adapt=2 / b_bias=0 / direct=3 / weightb=1 / open_gop=0 / weightp=2 / keyint=240 / keyint_min=24 / scenecut=40 / intra_refresh=0 / rc_lookahead=60 / rc=2pass / mbtree=1 / bitrate=1825 / ratetol=1.0 / qcomp=0.60 / qpmin=0 / qpmax=69 / qpstep=4 / cplxblur=20.0 / qblur=0.5 / vbv_maxrate=62500 / vbv_bufsize=50000 / nal_hrd=vbr / filler=0 / ip_ratio=1.40 / aq=1:1.00
Default                                  : Да
Forced                                   : Нет

Аудио
Идентификатор                            : 2
Формат                                   : AC-3
Формат/Информация                        : Audio Coding 3
Коммерческое название                    : Dolby Digital
Идентификатор кодека                     : A_AC3
Продолжительность                        : 1 ч. 34 м.
Вид битрейта                             : Постоянный
Битрейт                                  : 384 Кбит/сек
Каналы                                   : 6 каналов
Channel layout                           : L R C LFE Ls Rs
Частота                                  : 48,0 КГц
Частота кадров                           : 31,250 кадров/сек (1536 SPF)
Метод сжатия                             : С потерями
Размер потока                            : 260 Мбайт (17%)
Язык                                     : Russian
Service kind                             : Complete Main
Default                                  : Да
Forced                                   : Нет

Текст
Идентификатор                            : 3
Формат                                   : UTF-8
Идентификатор кодека                     : S_TEXT/UTF8
Идентификатор кодека/Информация          : UTF-8 Plain Text
Продолжительность                        : 1 ч. 0 м.
Битрейт                                  : 0 бит/сек
Частота кадров                           : 0,003 кадр/сек
Count of elements                        : 12
Размер потока                            : 388 байт (0%)
Заголовок                                : forced
Язык                                     : Russian
Default                                  : Да
Forced                                   : Нет
[+] Скриншоты

Всего файлов в раздаче: 1 
Капкан Судная ночь_2023_HDRip-AVC.mkv1.46 GB

Похожие раздачи по запросу - Капкан
2024-03-24 magnet Капкан: Судная ночь / Night of the Hunted (2023) BDRip от MegaPeer | D 1.46 GB ↑ 0 ↓ 0
2024-03-24 magnet Капкан: Судная ночь / Night of the Hunted (2023) BDRip 1080p от MegaPeer | D 6.33 GB ↑ 0 ↓ 0
2024-03-24 magnet Капкан: Судная ночь / Night of the Hunted (2023) BDRip 720p от MegaPeer | D 3.25 GB ↑ 0 ↓ 0
2024-03-16 magnet Подводный капкан / The Dive (2023) BDRip-AVC от DoMiNo & селезень | D 1.46 GB ↑ 0 ↓ 0
2024-03-16 magnet Подводный капкан / The Dive (2023) BDRemux 1080p от селезень | D 16.33 GB ↑ 0 ↓ 1
2024-03-11 magnet Капкан / Safe House (2023) BDRip 720p от DoMiNo & селезень | D 3.37 GB ↑ 0 ↓ 0
2024-03-10 magnet Капкан / Safe House (2023) BDRip от New-Team | D 1.46 GB ↑ 0 ↓ 0

Комментарии


Зарегистрируйтесь чтобы добавить комментарий
Торрент клиент
byTorrent - программа для загрузки торрент-файлов.

Скачать byTorrent.exe (1,5 МБ)

Скачать byTorrent.zip (0,6 МБ)

Поддержи torrent.by
российских рублей
(300 российских рублей это 4$)

Обратная связь rss

End game ©