↑↓torrent.by
Поиск
Логин:  Регистрация
Пароль:

Шестой день / The 6th Day (2000) BDRip от ivandubskoj | D, P | Лицензия

download Скачать торрент-файл   magnet Магнитная ссылка Размер: 2.53 GB Добавлен: 2024-03-27 17:00
Пиры будут получены из сети DHT
Последний сидер был замечен 2024-04-15 19:39
Информация о фильме Название: Шестой день Оригинальное название: The 6th Day Год выхода: 2000 Жанр: Фантастика, боевик, триллер Режиссер: Роджер Споттисвуд В ролях: Арнольд Шварценеггер, Майкл Рапапорт, Тони Голдуин, Майкл Рукер, Сара Уайнтер, Венди Крюсон, Родни Роулэнд, Терри Крюс, Кен Поуг, Колин Каннингэм, Роберт Дювалл, Ванда Кэннон, Тейлор Энн Рейд, Дженнифер Гэрис, Дон МакМанус, Стив Бачич, Кристофер Лоуфорд, Марк Брэндон, Элли Харви, Дон С. Дэвис, Крис Каунд, Бен Басс, Роберт Кларк, Майкл Бадман, Уоррен Такэути, Клодин Грант, Александра Кастилло, Колин Лоуренс, Марк Гиббон, Брайан Дженсен, Кроуфорд Джеймс, Питер Кент, Хиро Канагава, Ми-Чжон Ли, Джиллиан Барбер, Джерард Планкет, Клер Райли, Эндрю МакИлрой, Норма Жан Уик, Пол Карсон, Грэхэм Эндрюс, Беннита Ха, Андреа Либман О фильме: В начале третьего тысячелетия самым суровым законом стал «закон Шестого дня». Он запрещал клонирование людей и создание искусственных копий человека. Но огромная подпольная империя вопреки запрету выращивает человечество нового будущего, сотни управляемых теней. Налаженная машина преступления не давала сбоев, пока в ее совершенный механизм не вмешалась случайность: пилот вертолета Адам Гибсон неожиданно приоткрыл непроницаемую завесу заговора. Теперь он - последний рубеж обороны, отделяющий цивилизацию от общества зомби. Страна: США Студия: Phoenix Pictures Продолжительность: 02:03:34 Перевод: Дублированный (Невафильм), профессиональный многоголосый (ОРТ), профессиональный многоголосый (С.Р.И.) Оригинальная аудио-дорожка: Нет Файл Кодек: XviD Качество: BDRip Видео: XviD, 1796 Кбит/с, 720x304 (2.35:1), 23,976 кадр/с Аудио #1: Русский, Dolby AC3, 48000 Гц, 448 Кбит/с, 6 каналов (5.1) - DUB, BD CEE Аудио #2: Русский, Dolby AC3, 48000 Гц, 224 Кбит/с, 2 канала (Стерео) - MVO Аудио #3: Русский, Dolby AC3, 48000 Гц, 448 Кбит/с, 6 каналов (5.1) - MVO, R7 Субтитры: Нет
[+] MediaInfo General Complete name : The.6th.Day.2000.Triple.BDRip.avi Format : AVI Format/Info : Audio Video Interleave Format profile : OpenDML File size : 2.53 GiB Duration : 2h 3mn Overall bit rate : 2 933 Kbps Movie name : Шестой день / The 6th Day (2000) BDRip Genre : Фантастика, боевик, триллер Recorded date : 14.09.2014 Writing application : VirtualDubMod 1.5.10.3 | www.virtualdub-fr.org || (build 2550/release) Writing library : VirtualDubMod build 2550/release Copyright : rip by ivandubskoj Video ID : 0 Format : MPEG-4 Visual Format profile : Advanced Simple@L5 Format settings, BVOP : 1 Format settings, QPel : No Format settings, GMC : No warppoints Format settings, Matrix : Custom Codec ID : XVID Codec ID/Hint : XviD Duration : 2h 3mn Bit rate : 1 796 Kbps Width : 720 pixels Height : 304 pixels Display aspect ratio : 2.35:1 Frame rate : 23.976 fps Color space : YUV Chroma subsampling : 4:2:0 Bit depth : 8 bits Scan type : Progressive Compression mode : Lossy Bits/(Pixel*Frame) : 0.342 Stream size : 1.55 GiB (61%) Writing library : XviD 73 Audio #1 ID : 1 Format : AC-3 Format/Info : Audio Coding 3 Mode extension : CM (complete main) Format settings, Endianness : Big Codec ID : 2000 Duration : 2h 3mn Bit rate mode : Constant Bit rate : 448 Kbps Channel(s) : 6 channels Channel positions : Front: L C R, Side: L R, LFE Sampling rate : 48.0 KHz Bit depth : 16 bits Compression mode : Lossy Stream size : 396 MiB (15%) Alignment : Split accross interleaves Interleave, duration : 64 ms (1.53 video frames) Interleave, preload duration : 500 ms Title : Russian, DUB, BD CEE Audio #2 ID : 2 Format : AC-3 Format/Info : Audio Coding 3 Mode extension : CM (complete main) Format settings, Endianness : Big Codec ID : 2000 Duration : 2h 3mn Bit rate mode : Constant Bit rate : 224 Kbps Channel(s) : 2 channels Channel positions : Front: L R Sampling rate : 48.0 KHz Bit depth : 16 bits Compression mode : Lossy Stream size : 198 MiB (8%) Alignment : Split accross interleaves Interleave, duration : 64 ms (1.53 video frames) Interleave, preload duration : 500 ms Title : MVO Audio #3 ID : 3 Format : AC-3 Format/Info : Audio Coding 3 Mode extension : CM (complete main) Format settings, Endianness : Big Codec ID : 2000 Duration : 2h 3mn Bit rate mode : Constant Bit rate : 448 Kbps Channel(s) : 6 channels Channel positions : Front: L C R, Side: L R, LFE Sampling rate : 48.0 KHz Bit depth : 16 bits Compression mode : Lossy Stream size : 396 MiB (15%) Alignment : Split accross interleaves Interleave, duration : 64 ms (1.53 video frames) Interleave, preload duration : 500 ms Title : Russian, MVO, R7
[+] Скриншоты
Автор рипа - ivandubskoj

Всего файлов в раздаче: 1 
The.6th.Day.2000.Triple.BDRip.avi2.53 GB

Комментарии


Зарегистрируйтесь чтобы добавить комментарий
Торрент клиент
byTorrent - программа для загрузки торрент-файлов.

Скачать byTorrent.exe (1,5 МБ)

Скачать byTorrent.zip (0,6 МБ)

Поддержи torrent.by
российских рублей
(300 российских рублей это 4$)

Обратная связь rss

End game ©