↑↓torrent.by
Поиск
Логин:  Регистрация
Пароль:

Морозко [01-05 из 08] (2024) WEBRip-HEVC 2160p | 4K | SDR

download Скачать торрент-файл   magnet Магнитная ссылка Размер: 10.24 GB Добавлен: 2024-03-28 05:00
Пиры будут получены из сети DHT
Последний сидер был замечен 2024-03-28 06:19
Информация о фильме Название: Морозко Год выхода: 2024 Жанр: Комедия, драма Режиссер: Юлия Лысова В ролях: Аглая Тарасова, Никита Ефремов, Алиса Руденко, Николай Наумов, Виктор Логинов, Андрей Федорцов, Гоша Куценко, Геннадий Масленников, Евгений Городницкий, Елизавета Гончаренко, Николай Орловский, Иван Пищулин, Егор Анисимов, Артем Гайдуков, Владислав Ценёв, Сергей Кирпичёнок, Ион Даналаки, Денис Волков, Денис Яковлев, Сергей Кузнецов, Елена Архипова, Михаил Локшин, Иван Левин, Алина Ходжеванова, Елена Морозова, Сергей Лешуков, Полина Куценко, Егор Найдович О фильме: 33-летняя Рита работает на телевидении и производит впечатление успешной девушки. Однако на самом деле, в её душе — пустота. Работа не нравится, семьи нет, друзей и близких — тоже. Не говоря о мужчине — одиночество Риты скрашивает только чучело хорька, которое она держит на почётном месте в съемной квартире. Безжалостный диагноз, о котором она узнаёт, казалось бы, должен окончательно убить все надежды на счастье. Но именно он становится отправной точкой к её исцелению, избавлению от страхов и поиску настоящей любви. Страна: Россия Студия: Место силы, Okko, Originals Production Продолжительность: 5 x ~ 00:30:00 Язык: Русский Премьера в Росcии: 06 марта 2024 года Цифровой релиз: 06 марта 2024 года Примечание: Без рекламы Возраст: 18+ Файл Формат: MKV Качество: WEBRip-HEVC 2160p Видео: MPEG-H HEVC SDR, ~ 11.8 Mбит/с, 3840x2160, 8 бит Звук: E-AC3, 6 ch, 384 Кбит/с Субтитры: Отсутствуют Семпл
[+] Скриншоты
[+] MIОбщее Уникальный идентификатор : 335643571705428670755341938010907303774 (0xFC8299BCEA1E8E3EA7A9AD1152015F5E) Полное имя : C:UsersAdminDesktopМорозко.S01.2160p.WEB-DL.HEVCМорозко.S01E01.2160p.WEB-DL.HEVC.mkv Формат : Matroska Версия формата : Version 4 Размер файла : 2,00 Гбайт Продолжительность : 23 м. 34 с. Общий поток : 12,2 Мбит/сек Дата кодирования : UTC 2024-03-05 21:19:36 Программа кодирования : mkvmerge v81.0 ('Milliontown') 64-bit Библиотека кодирования : libebml v1.4.4 + libmatroska v1.7.1 Видео Идентификатор : 1 Формат : HEVC Формат/Информация : High Efficiency Video Coding Профиль формата : Main@L5@Main Идентификатор кодека : V_MPEGH/ISO/HEVC Продолжительность : 23 м. 34 с. Битрейт : 11,8 Мбит/сек Ширина : 3 840 пикселей Высота : 2 160 пикселей Соотношение сторон : 16:9 Режим частоты кадров : Постоянный Частота кадров : 25,000 кадров/сек Цветовое пространство : YUV Субдискретизация насыщенности : 4:2:0 Битовая глубина : 8 бит Бит/(Пиксели*Кадры) : 0.057 Размер потока : 1,94 Гбайт (97%) Библиотека кодирования : x265 3.5+1-f0c1022b6: 8bit+10bit+12bit Настройки программы : cpuid=1111039 / frame-threads=3 / wpp / no-pmode / no-pme / no-psnr / no-ssim / log-level=2 / input-csp=1 / input-res=3840x2160 / interlace=0 / total-frames=0 / level-idc=0 / high-tier=1 / uhd-bd=0 / ref=4 / no-allow-non-conformance / repeat-headers / annexb / no-aud / no-hrd / info / hash=0 / no-temporal-layers / no-open-gop / min-keyint=50 / keyint=50 / gop-lookahead=0 / bframes=3 / b-adapt=0 / b-pyramid / bframe-bias=0 / rc-lookahead=25 / lookahead-slices=4 / scenecut=0 / hist-scenecut=0 / radl=0 / no-splice / no-intra-refresh / ctu=64 / min-cu-size=8 / rect / no-amp / max-tu-size=32 / tu-inter-depth=1 / tu-intra-depth=1 / limit-tu=0 / rdoq-level=2 / dynamic-rd=0.00 / no-ssim-rd / signhide / no-tskip / nr-intra=0 / nr-inter=0 / no-constrained-intra / strong-intra-smoothing / max-merge=3 / limit-refs=3 / limit-modes / me=2 / subme=3 / merange=57 / temporal-mvp / no-frame-dup / no-hme / weightp / no-weightb / no-analyze-src-pics / deblock=0:0 / sao / no-sao-non-deblock / rd=3 / selective-sao=4 / no-early-skip / rskip / no-fast-intra / no-tskip-fast / no-cu-lossless / no-b-intra / no-splitrd-skip / rdpenalty=0 / psy-rd=2.00 / psy-rdoq=0.00 / no-rd-refine / no-lossless / cbqpoffs=0 / crqpoffs=0 / rc=abr / bitrate=12000 / qcomp=0.80 / qpstep=4 / stats-write=0 / stats-read=2 / cplxblur=20.0 / qblur=0.5 / vbv-maxrate=18000 / vbv-bufsize=24000 / vbv-init=0.8 / min-vbv-fullness=50.0 / max-vbv-fullness=80.0 / ipratio=1.40 / pbratio=1.30 / aq-mode=2 / aq-strength=1.00 / cutree / zone-count=0 / no-strict-cbr / qg-size=32 / no-rc-grain / qpmax=69 / qpmin=1 / no-const-vbv / sar=0 / overscan=0 / videoformat=5 / range=0 / colorprim=2 / transfer=2 / colormatrix=2 / chromaloc=0 / display-window=0 / cll=0,0 / min-luma=0 / max-luma=255 / log2-max-poc-lsb=8 / vui-timing-info / vui-hrd-info / slices=1 / no-opt-qp-pps / no-opt-ref-list-length-pps / no-multi-pass-opt-rps / scenecut-bias=0.05 / hist-threshold=0.03 / no-opt-cu-delta-qp / no-aq-motion / no-hdr10 / no-hdr10-opt / no-dhdr10-opt / no-idr-recovery-sei / analysis-reuse-level=0 / analysis-save-reuse-level=0 / analysis-load-reuse-level=0 / scale-factor=0 / refine-intra=0 / refine-inter=0 / refine-mv=1 / refine-ctu-distortion=0 / no-limit-sao / ctu-info=0 / no-lowpass-dct / refine-analysis-type=0 / copy-pic=1 / max-ausize-factor=1.0 / no-dynamic-refine / no-single-sei / no-hevc-aq / no-svt / no-field / qp-adaptation-range=1.00 / scenecut-aware-qp=0conformance-window-offsets / right=0 / bottom=0 / decoder-max-rate=0 / no-vbv-live-multi-pass Язык : English Default : Да Forced : Нет Цветовой диапазон : Limited Аудио Идентификатор : 2 Формат : E-AC-3 Формат/Информация : Enhanced AC-3 Коммерческое название : Dolby Digital Plus Идентификатор кодека : A_EAC3 Продолжительность : 23 м. 34 с. Вид битрейта : Постоянный Битрейт : 384 Кбит/сек Каналы : 6 каналов Channel layout : L R C LFE Ls Rs Частота : 48,0 КГц Частота кадров : 31,250 кадров/сек (1536 SPF) Метод сжатия : С потерями Размер потока : 64,7 Мбайт (3%) Язык : Russian Service kind : Complete Main Default : Да Forced : Нет

Всего файлов в раздаче: 5 
[NOOBDL]Морозко.S01E01.2160p.WEB-DL.HEVC.mkv2.00 GB
[NOOBDL]Морозко.S01E02.2160p.WEB-DL.HEVC.mkv1.98 GB
[NOOBDL]Морозко.S01E03.2160p.WEB-DL.HEVC.mkv1.98 GB
[NOOBDL]Морозко.S01E04.2160p.WEB-DL.HEVC.mkv2.08 GB
[NOOBDL]Морозко.S01E05.2160p.WEB-DL.HEVC.mkv2.19 GB

Похожие раздачи по запросу - Морозко
2024-04-12 magnet Морозко [01х01-07 из 08] (2024) WEBRip-AVC от Generalfilm | КПК 789.81 MB ↑ 0 ↓ 0
2024-04-11 magnet Морозко [01-07 из 08] (2024) WEBRip 2.49 GB ↑ 1 ↓ 0
2024-04-11 magnet Морозко [01-07 из 08] (2024) WEBRip 1080p 7.00 GB ↑ 0 ↓ 0
2024-04-11 magnet Морозко [01х01-07 из 08] (2024) WEBRip-AVC от Files-x 2.42 GB ↑ 0 ↓ 0
2024-04-06 magnet Морозко [01х01-06 из 08] (2024) WEBRip-AVC от Files-x 2.05 GB ↑ 0 ↓ 0
2024-04-04 magnet Морозко [01-06 из 08] (2024) WEBRip 720p от ExKinoRay 4.40 GB ↑ 0 ↓ 0
2024-04-04 magnet Морозко [01-06 из 08] (2024) WEBRip 1080p 5.93 GB ↑ 0 ↓ 0

Комментарии


Зарегистрируйтесь чтобы добавить комментарий
Торрент клиент
byTorrent - программа для загрузки торрент-файлов.

Скачать byTorrent.exe (1,5 МБ)

Скачать byTorrent.zip (0,6 МБ)

Поддержи torrent.by
российских рублей
(300 российских рублей это 4$)

Обратная связь rss

End game ©