↑↓torrent.by
Поиск
Логин:  Регистрация
Пароль:

Задача трёх тел / 3 Body Problem [S01] (2024) WEB-DL 2160p | 4K | SDR | P

download Скачать торрент-файл   magnet Магнитная ссылка Размер: 51.46 GB Раздают: 0 Качают: 2 Добавлен: 2024-03-28 05:00
Пиры будут получены из сети DHT
Последний сидер был замечен 2024-04-06 00:30
Название: Задача трёх тел Оригинальное название: 3 Body Problem Год выхода: 2024 Производство: Великобритания, США, Китай / Bighead Littlehead, Netflix Studios, Plan B Entertainment, Primitive Streak Жанр: Фантастика, фэнтези, драма, детектив Перевод: Профессиональный многоголосый Продолжительность: 8х ~00:55:00 серия Режиссёры: Минки Спиро, Джереми Подесва, Дерек Цан, Эндрю Стэнтон В ролях: Джесс Хонг, Лиам Каннингэм, Эйса Гонсалес, Джован Адепо, Джон Брэдли, Алекс Шарп, Бенедикт Вонг, Саамер Усмани, Розалинд Чао, Цай Чинь, Джонатан Прайс, Авиталь Львова, Бен Шнетцер, Эдмунд Кингсли, Хосе Пальма Описание: Учёные по всему миру накладывают на себя руки, сталкиваясь с нарушениями законов физики в их экспериментах. Всё это как-то связано с VR-игрой «Три тела», тайной научной ячейкой и инопланетянами. Как именно - разбираются детектив Да Ши и группа физиков - выпускников Оксфорда Формат: MKV Качество: WEB-DL 2160p Видео: MPEG-H/HEVC, 3840x2160, 15.3 Mb/s, 0.077 бит/(Пиксели*Кадры), 23,976 fps Аудио 1: Е-AC3, 6 ch, 768 Kbps, русский (MVO, LostFilm) серия 1-3 Аудио 2: AC3, 2 ch, 192 Kbps, русский (MVO, HDRezka Studio) серии 1-8 Аудио 3: AC3, 6 ch, 384 Kbps, русский (MVO, Jaskier) серии 1-8 Аудио 4: AC3, 2 ch, 192 Kbps, русский (MVO, Red Head Sound) серия 1-3 Аудио 5: Е-AC3, 6 ch, 640 Kbps, украинский (DUB, Postmodern) серии 1-8 Аудио 6: E-AC3 JOC, 6 ch, 768 Kbps, английский Субтитры: Русские (Forced, Full), Английские (Forced, SDH)
[+] MediainfoОбщее Уникальный идентификатор : 267032645197838955279658505053311038283 (0xC8E49DE36DE3BB226F7110AB2443734B) Полное имя : D:3.Body.Problem.2024.S01.2160p.SDR3.Body.Problem.S01E01.2160p.SDR.mkv Формат : Matroska Версия формата : Version 4 Размер файла : 7,71 Гбайт Продолжительность : 1 ч. 0 м. Общий поток : 18,2 Мбит/сек Частота кадров : 23,976 кадра/сек Дата кодирования : 2024-03-27 02:35:12 UTC Программа кодирования : mkvmerge v83.0 ('Circle Of Friends') 64-bit Библиотека кодирования : libebml v1.4.5 + libmatroska v1.7.1 Обложка : Yes Attachments : cover.png / Cover.3.jpg Видео Идентификатор : 1 Формат : HEVC Формат/Информация : High Efficiency Video Coding Профиль формата : Main 10@L5@Main Идентификатор кодека : V_MPEGH/ISO/HEVC Продолжительность : 1 ч. 0 м. Битрейт : 15,3 Мбит/сек Ширина : 3 840 пикселей Высота : 2 160 пикселей Соотношение сторон : 16:9 Режим частоты кадров : Постоянный Частота кадров : 23,976 (24000/1001) кадра/сек Цветовое пространство : YUV Субдискретизация насыщенности : 4:2:0 Битовая глубина : 10 бит Бит/(Пиксели*Кадры) : 0.077 Размер потока : 6,46 Гбайт (84%) Default : Да Forced : Нет Цветовой диапазон : Limited Основные цвета : BT.709 Характеристики трансфера : BT.709 Коэффициенты матрицы : BT.709 Аудио #1 Идентификатор : 2 Формат : E-AC-3 Формат/Информация : Enhanced AC-3 Коммерческое название : Dolby Digital Plus Идентификатор кодека : A_EAC3 Продолжительность : 1 ч. 0 м. Вид битрейта : Постоянный Битрейт : 768 Кбит/сек Каналы : 6 каналов Channel layout : L R C LFE Ls Rs Частота : 48,0 КГц Частота кадров : 31,250 кадров/сек (1536 SPF) Метод сжатия : С потерями Размер потока : 333 Мбайт (4%) Заголовок : LostFilm Язык : Russian Service kind : Complete Main Default : Да Forced : Нет Аудио #2 Идентификатор : 3 Формат : AC-3 Формат/Информация : Audio Coding 3 Коммерческое название : Dolby Digital Идентификатор кодека : A_AC3 Продолжительность : 1 ч. 0 м. Вид битрейта : Постоянный Битрейт : 192 Кбит/сек Каналы : 2 канала Channel layout : L R Частота : 48,0 КГц Частота кадров : 31,250 кадров/сек (1536 SPF) Метод сжатия : С потерями Размер потока : 83,2 Мбайт (1%) Заголовок : HDRezka Studio Язык : Russian Service kind : Complete Main Default : Нет Forced : Нет Аудио #3 Идентификатор : 4 Формат : AC-3 Формат/Информация : Audio Coding 3 Коммерческое название : Dolby Digital Идентификатор кодека : A_AC3 Продолжительность : 1 ч. 0 м. Вид битрейта : Постоянный Битрейт : 384 Кбит/сек Каналы : 6 каналов Channel layout : L R C LFE Ls Rs Частота : 48,0 КГц Частота кадров : 31,250 кадров/сек (1536 SPF) Метод сжатия : С потерями Размер потока : 166 Мбайт (2%) Заголовок : Jaskier Язык : Russian Service kind : Complete Main Default : Нет Forced : Нет Аудио #4 Идентификатор : 5 Формат : AC-3 Формат/Информация : Audio Coding 3 Коммерческое название : Dolby Digital Идентификатор кодека : A_AC3 Продолжительность : 1 ч. 0 м. Вид битрейта : Постоянный Битрейт : 192 Кбит/сек Каналы : 2 канала Channel layout : L R Частота : 48,0 КГц Частота кадров : 31,250 кадров/сек (1536 SPF) Метод сжатия : С потерями Размер потока : 83,2 Мбайт (1%) Заголовок : Red Head Sound Язык : Russian Service kind : Complete Main Default : Нет Forced : Нет Аудио #5 Идентификатор : 6 Формат : E-AC-3 Формат/Информация : Enhanced AC-3 Коммерческое название : Dolby Digital Plus Идентификатор кодека : A_EAC3 Продолжительность : 1 ч. 0 м. Вид битрейта : Постоянный Битрейт : 640 Кбит/сек Каналы : 6 каналов Channel layout : L R C LFE Ls Rs Частота : 48,0 КГц Частота кадров : 31,250 кадров/сек (1536 SPF) Метод сжатия : С потерями Размер потока : 277 Мбайт (4%) Заголовок : Postmodern Язык : Ukrainian Service kind : Complete Main Default : Нет Forced : Нет Аудио #6 Идентификатор : 7 Формат : E-AC-3 JOC Формат/Информация : Enhanced AC-3 with Joint Object Coding Коммерческое название : Dolby Digital Plus with Dolby Atmos Идентификатор кодека : A_EAC3 Продолжительность : 1 ч. 0 м. Вид битрейта : Постоянный Битрейт : 768 Кбит/сек Каналы : 6 каналов Channel layout : L R C LFE Ls Rs Частота : 48,0 КГц Частота кадров : 31,250 кадров/сек (1536 SPF) Метод сжатия : С потерями Размер потока : 333 Мбайт (4%) Язык : English Service kind : Complete Main Default : Нет Forced : Нет Complexity index : 16 Number of dynamic objects : 15 Bed channel count : 1 канал Bed channel configuration : LFE Текст #1 Идентификатор : 8 Формат : UTF-8 Идентификатор кодека : S_TEXT/UTF8 Идентификатор кодека/Информация : UTF-8 Plain Text Продолжительность : 50 м. 40 с. Битрейт : 3 бит/сек Частота кадров : 0,009 кадр/сек Count of elements : 26 Размер потока : 1,28 Кбайт (0%) Заголовок : Forced Язык : Russian Default : Нет Forced : Да Текст #2 Идентификатор : 9 Формат : UTF-8 Идентификатор кодека : S_TEXT/UTF8 Идентификатор кодека/Информация : UTF-8 Plain Text Продолжительность : 58 м. 18 с. Битрейт : 64 бит/сек Частота кадров : 0,163 кадр/сек Count of elements : 570 Размер потока : 27,7 Кбайт (0%) Язык : Russian Default : Нет Forced : Нет Текст #3 Идентификатор : 10 Формат : UTF-8 Идентификатор кодека : S_TEXT/UTF8 Идентификатор кодека/Информация : UTF-8 Plain Text Продолжительность : 55 м. 27 с. Битрейт : 6 бит/сек Частота кадров : 0,019 кадр/сек Count of elements : 62 Размер потока : 2,54 Кбайт (0%) Заголовок : Forced Язык : Ukrainian Default : Нет Forced : Нет Текст #4 Идентификатор : 11 Формат : UTF-8 Идентификатор кодека : S_TEXT/UTF8 Идентификатор кодека/Информация : UTF-8 Plain Text Продолжительность : 58 м. 23 с. Битрейт : 67 бит/сек Частота кадров : 0,169 кадр/сек Count of elements : 592 Размер потока : 28,9 Кбайт (0%) Язык : Ukrainian Default : Нет Forced : Нет Текст #5 Идентификатор : 12 Формат : UTF-8 Идентификатор кодека : S_TEXT/UTF8 Идентификатор кодека/Информация : UTF-8 Plain Text Продолжительность : 54 м. 37 с. Битрейт : 13 бит/сек Частота кадров : 0,055 кадр/сек Count of elements : 180 Размер потока : 5,21 Кбайт (0%) Заголовок : Forced Язык : English Default : Нет Forced : Нет Текст #6 Идентификатор : 13 Формат : UTF-8 Идентификатор кодека : S_TEXT/UTF8 Идентификатор кодека/Информация : UTF-8 Plain Text Продолжительность : 56 м. 7 с. Битрейт : 44 бит/сек Частота кадров : 0,175 кадр/сек Count of elements : 589 Размер потока : 18,2 Кбайт (0%) Язык : English Default : Нет Forced : Нет Текст #7 Идентификатор : 14 Формат : UTF-8 Идентификатор кодека : S_TEXT/UTF8 Идентификатор кодека/Информация : UTF-8 Plain Text Продолжительность : 58 м. 23 с. Битрейт : 58 бит/сек Частота кадров : 0,239 кадр/сек Count of elements : 839 Размер потока : 25,2 Кбайт (0%) Заголовок : SDH Язык : English Default : Нет Forced : Нет Меню 00:00:00.000 : en:Part 01 00:56:30.450 : en:Credits
[+] Скриншоты

Всего файлов в раздаче: 8 
3.Body.Problem.S01E01.2160p.SDR.mkv7.71 GB
3.Body.Problem.S01E02.2160p.SDR.mkv7.92 GB
3.Body.Problem.S01E03.2160p.SDR.mkv6.36 GB
3.Body.Problem.S01E04.2160p.SDR.mkv4.55 GB
3.Body.Problem.S01E05.2160p.SDR.mkv7.02 GB
3.Body.Problem.S01E06.2160p.SDR.mkv5.63 GB
3.Body.Problem.S01E07.2160p.SDR.mkv6.59 GB
3.Body.Problem.S01E08.2160p.SDR.mkv5.67 GB

Похожие раздачи по запросу - Задача
2024-04-15 magnet Детектив на все руки. Задача со звёздочкой [S03] (2023) WEB-DL 1080p от Files-x 6.64 GB ↑ 0 ↓ 0
2024-04-15 magnet Детектив на все руки. Задача со звёздочкой [S03] (2023) WEB-DLRip-AVC от Files-x 2.25 GB ↑ 0 ↓ 0
2024-04-14 magnet Детектив на все руки. Задача со звёздочкой [S03] (2023) WEB-DLRip от Files-x 2.24 GB ↑ 0 ↓ 0
2024-04-13 magnet Детектив на все руки. Задача со звёздочкой / Сезон: 3 / Серии: 1-4 из 4 [2023, детектив, WEBRip-AVC] от Aleksan55 2.23 GB ↑ 1 ↓ 0
2024-04-03 magnet Задача трёх тел / 3 Body Problem [S01] (2024) WEB-DL-HEVC 2160p | 4K | HDR | HDrezka Studio, LostFilm, TVShows, Red Head Sound 40.50 GB ↑ 0 ↓ 14
2024-04-03 magnet Задача трёх тел / 3 Body Problem [S01] (2024) WEB-DL 2160p | 4K | SDR | P 54.63 GB ↑ 0 ↓ 4
2024-04-02 magnet Задача трёх тел / 3 Body Problem [S01] (2024) WEB-DLRip | LostFilm 6.19 GB ↑ 0 ↓ 0

Комментарии


Зарегистрируйтесь чтобы добавить комментарий
Торрент клиент
byTorrent - программа для загрузки торрент-файлов.

Скачать byTorrent.exe (1,5 МБ)

Скачать byTorrent.zip (0,6 МБ)

Поддержи torrent.by
российских рублей
(300 российских рублей это 4$)

Обратная связь rss

End game ©