↑↓torrent.by
Поиск
Логин:  Регистрация
Пароль:

Беспринципные [04x01 из 08] (2024) WEB-DL 720p

download Скачать торрент-файл   magnet Магнитная ссылка Размер: 1.74 GB Добавлен: 2024-03-28 05:00
Пиры будут получены из сети DHT
Последний сидер был замечен 2024-04-05 07:26
Информация о фильме Название: Беспринципные Год выхода: 2024 Жанр: Комедия Режиссёр: Роман Прыгунов В ролях: Павел Деревянко, Павел Табаков, Аглая Тарасова, Николай Фоменко, Кристина Бабушкина, Юрий Колокольников, Надежда Михалкова, Марина Доможирова, Александр Балуев, Ирина Пегова, Максим Лагашкин, Милош Бикович, Анна Слю, Матвей Лыков, Ксения Утехина, Дмитрий Муляр, Павел Ворожцов, Карина Зверева, Екатерина Кабак, Алина Дьяченко, Владимир Ляхов, Андрей Жилин, Семён Литвинов, Владислав Резник, Александр Дзюба, Алексей Семёнов, Зоя Зиновьева, Владимир Барташевич, Макс Громов, Михаил Коновалов, Вероника Ряполова, Валентин Бугаев, Виталий Шкунов, Ян Теплов, Владимир Пачин, Юрий Землянухин, Нина Кириллова, Владимир Вострецов, Александра Рудь, Елизавета Агарунова, Зарина Бахтиева, Евгений Петров, Александр Шестопалов, Юлия Марчук, Михаил Демчук, Маша Бриш, Сергей Бондаренко, Татьяна Монахова, Алиса Прокопенко, Анжелика Легостаева, Артемий Корочков, Ольга Челышева, Егор Карамышев, Игорь Басин, Анна Корепина, Юрий Могила, Сергей Шанин О фильме: У Славика в жизни сплошная турбулентность: развод с Людой, новая любовь, но старые слабости. Генерал Хадяков переживает вторую молодость, пока Валя строит карьеру певицы вместе с хитрым продюсером. Паша и Юля продолжают искать лёгкие деньги, а Рома и Вера — воспитывать ребёнка и друг друга в момент, когда в их жизни появляется иностранец Стефан. Тем временем из деревни на Патрики перебираются Алёнка и её родители, которым столичная жизнь тоже оказывается очень по вкусу… Страна: Россия Студия: Кинокомпания «Медиаслово» Продолжительность: 1 х ~ 01:05:00 Язык: Русский Премьера в Росcии: 28 марта 2024 года Цифровой релиз: 28 марта 2024 года Примечание: Без рекламы Возраст: 18+ Файл Формат: MKV Качество: WEB-DL 720p Видео: MPEG-4 AVC, ~ 2100 Кбит/с, 1280x720 Аудио #01: AC3, 6 ch, 448 Кбит/с Аудио #02: E-AC3, 6 ch, 448 Кбит/с Аудио #03: AC3, 6 ch, 448 Кбит/с | Тифлокомментирование Аудио #04: E-AC3, 6 ch, 448 Кбит/с | Тифлокомментирование Субтитры: Русские (полные, SDH) Семпл
[+] Скриншоты
[+] MIОбщее Уникальный идентификатор : 332000389178642589626472793454215675284 (0xF9C4F2F8A8B9286C286A2AAF1D4FBD94) Полное имя : C:UsersAdminDesktopBesprintcipnye.S04.WEB-DL.720p.MrMittensBesprintcipnye.S04.E01.WEB-DL.720p.MrMittens.mkv Формат : Matroska Версия формата : Version 4 Размер файла : 1,74 Гбайт Продолжительность : 1 ч. 4 м. Общий поток : 3 868 Кбит/сек Дата кодирования : UTC 2024-03-27 21:16:04 Программа кодирования : mkvmerge v43.0.0 ('The Quartermaster') 64-bit Библиотека кодирования : libebml v1.3.10 + libmatroska v1.5.2 Видео Идентификатор : 1 Формат : AVC Формат/Информация : Advanced Video Codec Профиль формата : Main@L3.1 Настройки формата : CABAC / 4 Ref Frames Параметр CABAC формата : Да Параметр RefFrames формата : 4 кадра Идентификатор кодека : V_MPEG4/ISO/AVC Продолжительность : 1 ч. 4 м. Битрейт : 2 073 Кбит/сек Номинальный битрейт : 2 300 Кбит/сек Ширина : 1 280 пикселей Высота : 720 пикселей Соотношение сторон : 16:9 Режим частоты кадров : Постоянный Частота кадров : 25,000 кадров/сек Цветовое пространство : YUV Субдискретизация насыщенности : 4:2:0 Битовая глубина : 8 бит Тип развёртки : Прогрессивная Бит/(Пиксели*Кадры) : 0.090 Размер потока : 957 Мбайт (54%) Библиотека кодирования : x264 core 164 Настройки программы : cabac=1 / ref=2 / deblock=1:0:0 / analyse=0x1:0x111 / me=hex / subme=6 / psy=1 / psy_rd=1.00:0.00 / mixed_ref=1 / me_range=16 / chroma_me=1 / trellis=1 / 8x8dct=0 / cqm=0 / deadzone=21,11 / fast_pskip=1 / chroma_qp_offset=-2 / threads=12 / lookahead_threads=2 / sliced_threads=0 / nr=0 / decimate=1 / interlaced=0 / bluray_compat=0 / constrained_intra=0 / bframes=3 / b_pyramid=2 / b_adapt=1 / b_bias=0 / direct=1 / weightb=1 / open_gop=0 / weightp=1 / keyint=250 / keyint_min=25 / scenecut=40 / intra_refresh=0 / rc_lookahead=30 / rc=cbr / mbtree=1 / bitrate=2300 / ratetol=1.0 / qcomp=0.60 / qpmin=0 / qpmax=69 / qpstep=4 / vbv_maxrate=2300 / vbv_bufsize=2990 / nal_hrd=none / filler=0 / ip_ratio=1.40 / aq=1:1.00 Язык : English Default : Да Forced : Нет Цветовой диапазон : Limited Основные цвета : BT.709 Характеристики трансфера : BT.709 Коэффициенты матрицы : BT.709 Аудио #1 Идентификатор : 2 Формат : AC-3 Формат/Информация : Audio Coding 3 Коммерческое название : Dolby Digital Идентификатор кодека : A_AC3 Продолжительность : 1 ч. 4 м. Вид битрейта : Постоянный Битрейт : 448 Кбит/сек Каналы : 6 каналов Channel layout : L R C LFE Ls Rs Частота : 48,0 КГц Частота кадров : 31,250 кадров/сек (1536 SPF) Метод сжатия : С потерями Размер потока : 207 Мбайт (12%) Заголовок : AC3 | RUS 5.1 Язык : Russian Service kind : Complete Main Default : Да Forced : Нет Аудио #2 Идентификатор : 3 Формат : E-AC-3 Формат/Информация : Enhanced AC-3 Коммерческое название : Dolby Digital Plus Идентификатор кодека : A_EAC3 Продолжительность : 1 ч. 4 м. Вид битрейта : Постоянный Битрейт : 448 Кбит/сек Каналы : 6 каналов Channel layout : L R C LFE Ls Rs Частота : 48,0 КГц Частота кадров : 31,250 кадров/сек (1536 SPF) Метод сжатия : С потерями Размер потока : 207 Мбайт (12%) Заголовок : E-AC3 | RUS 5.1 Язык : Russian Service kind : Complete Main Default : Нет Forced : Нет Аудио #3 Идентификатор : 4 Формат : AC-3 Формат/Информация : Audio Coding 3 Коммерческое название : Dolby Digital Идентификатор кодека : A_AC3 Продолжительность : 1 ч. 4 м. Вид битрейта : Постоянный Битрейт : 448 Кбит/сек Каналы : 6 каналов Channel layout : L R C LFE Ls Rs Частота : 48,0 КГц Частота кадров : 31,250 кадров/сек (1536 SPF) Метод сжатия : С потерями Размер потока : 207 Мбайт (12%) Заголовок : AC3 | RUS ТК 5.1 Язык : Russian Service kind : Complete Main Default : Нет Forced : Нет Аудио #4 Идентификатор : 5 Формат : E-AC-3 Формат/Информация : Enhanced AC-3 Коммерческое название : Dolby Digital Plus Идентификатор кодека : A_EAC3 Продолжительность : 1 ч. 4 м. Вид битрейта : Постоянный Битрейт : 448 Кбит/сек Каналы : 6 каналов Channel layout : L R C LFE Ls Rs Частота : 48,0 КГц Частота кадров : 31,250 кадров/сек (1536 SPF) Метод сжатия : С потерями Размер потока : 207 Мбайт (12%) Заголовок : E-AC3 | RUS ТК 5.1 Язык : Russian Service kind : Complete Main Default : Нет Forced : Нет Текст #1 Идентификатор : 6 Формат : UTF-8 Идентификатор кодека : S_TEXT/UTF8 Идентификатор кодека/Информация : UTF-8 Plain Text Продолжительность : 1 ч. 1 м. Битрейт : 109 бит/сек Частота кадров : 0,254 кадр/сек Count of elements : 933 Размер потока : 49,3 Кбайт (0%) Заголовок : Русский Язык : Russian Default : Да Forced : Нет Текст #2 Идентификатор : 7 Формат : UTF-8 Идентификатор кодека : S_TEXT/UTF8 Идентификатор кодека/Информация : UTF-8 Plain Text Продолжительность : 1 ч. 1 м. Битрейт : 125 бит/сек Частота кадров : 0,284 кадр/сек Count of elements : 1051 Размер потока : 56,5 Кбайт (0%) Заголовок : Русский (SDH) Язык : Russian Default : Нет Forced : Нет

Всего файлов в раздаче: 1 
Besprintcipnye.S04.E01.WEB-DL.720p.MrMittens.mkv1.74 GB

Похожие раздачи по запросу - Беспринципные
2024-04-19 magnet Беспринципные [04х01-04 из 08] (2024) WEB-DLRip от Files-x 2.83 GB ↑ 0 ↓ 0
2024-04-19 magnet Беспринципные [04x01-04 из 08] (2024) WEBRip-HEVC 1080p от ExKinoRay 7.74 GB ↑ 0 ↓ 0
2024-04-19 magnet Беспринципные [04x01-04 из 08] (2024) WEB-DL 1080p 9.16 GB ↑ 0 ↓ 0
2024-04-19 magnet Беспринципные [04х01-04 из 08] (2024) WEB-DLRip-AVC от Files-x 3.68 GB ↑ 0 ↓ 0
2024-04-19 magnet Беспринципные [04x01-04 из 08] (2024) WEB-DL 720p 5.71 GB ↑ 0 ↓ 0
2024-04-19 magnet Беспринципные [04х01-03 из 08] (2024) WEB-DLRip-AVC от Generalfilm | КПК 730.11 MB ↑ 0 ↓ 0
2024-04-18 magnet Беспринципные [04x01-04 из 08] (2024) WEBRip-HEVC 2160p | 4K | HDR 18.77 GB ↑ 0 ↓ 0

Комментарии


Зарегистрируйтесь чтобы добавить комментарий
Торрент клиент
byTorrent - программа для загрузки торрент-файлов.

Скачать byTorrent.exe (1,5 МБ)

Скачать byTorrent.zip (0,6 МБ)

Поддержи torrent.by
российских рублей
(300 российских рублей это 4$)

Обратная связь rss

End game ©