↑↓torrent.by
Поиск
Логин:  Регистрация
Пароль:

Стальная хватка / The Iron Claw (2023) BDRip 720p от DoMiNo & селезень | D

download Скачать торрент-файл   magnet Магнитная ссылка Размер: 6.91 GB Раздают: 0 Качают: 2 Добавлен: 2024-03-28 05:00
Пиры будут получены из сети DHT
Последний сидер был замечен 2024-03-28 22:22
Информация о фильме Название: Стальная хватка Оригинальное название: The Iron Claw Год выхода: 2023 Жанр: биография, спорт, драма Режиссер: Шон Дуркин В ролях: Зак Эфрон, Джереми Аллен Уайт, Харрис Дикинсон, Мора Тирни, Стэнли Саймонс, Лили Джеймс, Холт Маккэллани, Челси Эдмундсон, Грейди Уилсон, Валентайн Ньюкомер О фильме: Их жизнь - изнурительные тренировки перед грядущим сражением. Каждый раз, выходя на арену, они рискуют остаться здесь навсегда. Толпа приветствует могучих юношей, готовых развлекать их ради мимолетной славы. Но они - не гладиаторы в Древнем Риме. А дети некогда знаменитого бойца, который теперь полностью сконцентрирован на карьере своих четырёх сыновей. Рано или поздно они станут великими чемпионами, другого пути у них нет. Страна: США, Великобритания Студия: A24, Access Entertainment, Access Industries, BBC Films, House Productions Продолжительность: 02:11:50 Перевод: Дублированный | Пифагор Субтитры: Русские (Forced, Full), Английские Файл Формат: Matroska Качество: BDRip 720p Видео: 1280x692 at 23.976 fps, x264@L4.1, ~6415 kbps Аудио 1: AC3, 6 ch, ~448 kbps - | Русский | Аудио 2: AC3, 6 ch, ~640 kbps - | Английский | Формат субтитров: softsub (SRT) ***Рип от: -=DoMiNo=-
[+] M/Ix264 : frame I:944 Avg QP:16.95 size:119546 x264 : frame P:36715 Avg QP:18.64 size: 62407 x264 : frame B:152003 Avg QP:20.74 size: 25912 General Unique ID : 116063175655171800076468489283140370823 (0x5750F45CF66EA8A214D8CC9A9F58C187) Complete name : T:The.Iron.Claw.2023.DUB.BDRip.720p.x264.seleZen.mkv Format : Matroska Format version : Version 4 File size : 6.91 GiB Duration : 2 h 11 min Overall bit rate : 7 505 kb/s Frame rate : 23.976 FPS Movie name : The.Iron.Claw.2023.DUB.BDRip.720p.x264.seleZen Encoded date : 2024-03-27 11:50:10 UTC Writing application : mkvmerge v83.0 ('Circle Of Friends') 64-bit Writing library : libebml v1.4.5 + libmatroska v1.7.1 Cover : Yes Attachments : cover.jpg / small_cover.jpg Video ID : 1 Format : AVC Format/Info : Advanced Video Codec Format profile : High@L4.1 Format settings : CABAC / 9 Ref Frames Format settings, CABAC : Yes Format settings, Reference : 9 frames Codec ID : V_MPEG4/ISO/AVC Duration : 2 h 11 min Bit rate : 6 415 kb/s Width : 1 280 pixels Height : 692 pixels Display aspect ratio : 1.85:1 Frame rate mode : Constant Frame rate : 23.976 (24000/1001) FPS Color space : YUV Chroma subsampling : 4:2:0 Bit depth : 8 bits Scan type : Progressive Bits/(Pixel*Frame) : 0.302 Stream size : 5.91 GiB (85%) Title : -=DoMiNo=- Writing library : x264 core 164 r3190 7ed753b Encoding settings : cabac=1 / ref=9 / deblock=1:-2:-2 / analyse=0x3:0x133 / me=umh / subme=10 / psy=1 / psy_rd=1.05:0.03 / mixed_ref=1 / me_range=32 / chroma_me=1 / trellis=2 / 8x8dct=1 / cqm=0 / deadzone=21,11 / fast_pskip=0 / chroma_qp_offset=-3 / threads=22 / lookahead_threads=5 / sliced_threads=0 / nr=0 / decimate=0 / interlaced=0 / bluray_compat=0 / constrained_intra=0 / bframes=12 / b_pyramid=2 / b_adapt=2 / b_bias=0 / direct=1 / weightb=1 / open_gop=0 / weightp=2 / keyint=250 / keyint_min=23 / scenecut=40 / intra_refresh=0 / rc_lookahead=60 / rc=crf / mbtree=0 / crf=19.0 / qcomp=0.60 / qpmin=0 / qpmax=69 / qpstep=4 / vbv_maxrate=50000 / vbv_bufsize=62500 / crf_max=0.0 / nal_hrd=none / filler=0 / ip_ratio=1.40 / pb_ratio=1.30 / aq=3:0.80 Language : English Default : Yes Forced : No Color range : Limited Color primaries : BT.709 Transfer characteristics : BT.709 Matrix coefficients : BT.709 Audio #1 ID : 2 Format : AC-3 Format/Info : Audio Coding 3 Commercial name : Dolby Digital Codec ID : A_AC3 Duration : 2 h 11 min Bit rate mode : Constant Bit rate : 448 kb/s Channel(s) : 6 channels Channel layout : L R C LFE Ls Rs Sampling rate : 48.0 kHz Frame rate : 31.250 FPS (1536 SPF) Compression mode : Lossy Stream size : 422 MiB (6%) Title : Дублированный | Пифагор Language : Russian Service kind : Complete Main Default : Yes Forced : No Audio #2 ID : 3 Format : AC-3 Format/Info : Audio Coding 3 Commercial name : Dolby Digital Codec ID : A_AC3 Duration : 2 h 11 min Bit rate mode : Constant Bit rate : 640 kb/s Channel(s) : 6 channels Channel layout : L R C LFE Ls Rs Sampling rate : 48.0 kHz Frame rate : 31.250 FPS (1536 SPF) Compression mode : Lossy Stream size : 603 MiB (9%) Title : Original Language : English Service kind : Complete Main Default : No Forced : No Text #1 ID : 4 Format : UTF-8 Codec ID : S_TEXT/UTF8 Codec ID/Info : UTF-8 Plain Text Duration : 1 h 58 min Bit rate : 1 b/s Frame rate : 0.003 FPS Count of elements : 21 Stream size : 1.43 KiB (0%) Title : Forced Language : Russian Default : No Forced : No Text #2 ID : 5 Format : UTF-8 Codec ID : S_TEXT/UTF8 Codec ID/Info : UTF-8 Plain Text Duration : 2 h 4 min Bit rate : 77 b/s Frame rate : 0.206 FPS Count of elements : 1543 Stream size : 70.8 KiB (0%) Title : Full Language : Russian Default : No Forced : No Text #3 ID : 6 Format : UTF-8 Codec ID : S_TEXT/UTF8 Codec ID/Info : UTF-8 Plain Text Duration : 2 h 7 min Bit rate : 60 b/s Frame rate : 0.241 FPS Count of elements : 1847 Stream size : 56.2 KiB (0%) Title : SDH Language : English Default : No Forced : No Text #4 ID : 7 Format : UTF-8 Codec ID : S_TEXT/UTF8 Codec ID/Info : UTF-8 Plain Text Duration : 2 h 7 min Bit rate : 54 b/s Frame rate : 0.201 FPS Count of elements : 1530 Stream size : 51.1 KiB (0%) Title : Full Language : English Default : No Forced : No Menu 00:00:00.000 : Глава 1 00:05:05.305 : Глава 2 00:16:22.982 : Глава 3 00:26:18.994 : Глава 4 00:34:51.089 : Глава 5 00:43:44.622 : Глава 6 00:57:35.452 : Глава 7 01:05:33.930 : Глава 8 01:12:49.365 : Глава 9 01:22:27.943 : Глава 10 01:30:54.449 : Глава 11 01:35:36.731 : Глава 12 01:42:33.147 : Глава 13 01:53:35.809 : Глава 14 02:00:24.217 : Глава 15 02:04:53.903 : Глава 16 02:11:50.235 : Глава 17
Релиз: Присоединяйся к: Кликай на баннеры.

Всего файлов в раздаче: 1 
The.Iron.Claw.2023.DUB.BDRip.720p.x264.seleZen.mkv6.91 GB

Похожие раздачи по запросу - Стальная
2024-03-28 magnet Стальная хватка / The Iron Claw (2023) BDRip 1080p от селезень | D 10.63 GB ↑ 0 ↓ 0
2024-03-28 magnet Стальная хватка / The Iron Claw (2023) BDRemux 1080p | D 26.73 GB ↑ 1 ↓ 1
2024-03-28 magnet Стальная хватка / The Iron Claw (2023) BDRip-AVC от DoMiNo & селезень | D 1К2.36 GB ↑ 0 ↓ 0
2024-03-28 magnet Стальная хватка / The Iron Claw (2023) BDRip от toxics & селезень | D 2.18 GB ↑ 0 ↓ 0
2024-03-27 magnet Стальная хватка / The Iron Claw (2023) BDRip от MegaPeer | D 1.46 GB ↑ 0 ↓ 0
2024-03-27 magnet Стальная хватка / The Iron Claw (2023) BDRip от MegaPeer | D 2.18 GB ↑ 0 ↓ 0
2024-02-14 magnet Стальная хватка / The Iron Claw (2023) WEB-DL 720p от селезень | D 4.41 GB ↑ 0 ↓ 0

Комментарии

Big_Bonny
Лучше пересмотреть "Рестлер" с Микки Рурком.


Зарегистрируйтесь чтобы добавить комментарий
Торрент клиент
byTorrent - программа для загрузки торрент-файлов.

Скачать byTorrent.exe (1,5 МБ)

Скачать byTorrent.zip (0,6 МБ)

Поддержи torrent.by
российских рублей
(300 российских рублей это 4$)

Обратная связь rss

End game ©