↑↓torrent.by
Поиск
Логин:  Регистрация
Пароль:

Стон чёрной змеи / Black Snake Moan (2006) HDRip-AVC от DoMiNo & селезень | P2, L

download Скачать торрент-файл   magnet Магнитная ссылка Размер: 2.77 GB Добавлен: 2024-03-28 11:00
Пиры будут получены из сети DHT
Последний сидер был замечен 2024-04-09 08:42
Информация о фильме Название: Стон чёрной змеи Оригинальное название: Black Snake Moan Год выхода: 2006 Жанр: Драма Режиссер: Крэйг Брюэр В ролях: Сэмюэл Л. Джексон, Кристина Риччи, Джастин Тимберлэйк, Джон Котрэн мл., Дэвид Баннер, Майкл Рэймонд-Джеймс, Адриан Ленокс, Ким Ричардс, Неймус К. Уильямс, Леонард Л. Томас, Руби Уилсон, Клод Филлипс, Эми Лавер, Клэр Грант, Джефф Поуп, Чарльз «Скип» Питтс, Уилли Холл, Джон Маллой, Т.С. Шарп, Джон Стилл, Джаред Хопкинс, Тош Ньюман, Коди Блок, Бенжамин Реднур, Кэрнелл Пеппер, Дэвид Чэпман, Джо Линн Палмер, Рэймонд Нил, Джон Пикл, Ким Джастис О фильме: Живущий в уединении фермер Лазарь, когда-то игравший блюз в барах, а ныне ставший религиозным затворником, находит рядом со своим домом в лесу сильно избитую молодую женщину. Ею оказывается Рэй — местная нимфоманка, сорвавшаяся в свою зависимость после того, как ее парень Ронни ушел в армию. Лазарь берет Рэй к себе и решает помочь девушке стать на путь истинный. Страна: США Студия: New Deal Productions, Paramount Classics, Southern Cross the Dog Productions Продолжительность: 01:55:33 Перевод 1: Профессиональный (двухголосый, закадровый) | НТВ+ Перевод 2: Любительский (многоголосый, закадровый) | Всёпочесноку 18 + Субтитры: Русские (Full), Английские Файл Формат: Matroska Качество: HDRip-AVC Видео: 1152x480 at 23.976 fps, x264@L4.1, ~2655 kbps Аудио 1: AC3, 6 ch, ~448 kbps - | Русский | | НТВ+ Аудио 2: AC3, 2 ch, ~320 kbps - | Русский | | Всёпочесноку Формат субтитров: softsub (SRT) ***Рип от: -=DoMiNo=-
[+] M/IGeneral Unique ID : 209245379756910693850360349627559325277 (0x9D6B31BB037C48E981CEA03758C62E5D) Complete name : S:Black.Snake.Moan.2006.x264.seleZen.mkv Format : Matroska Format version : Version 4 File size : 2.77 GiB Duration : 1 h 55 min Overall bit rate : 3 436 kb/s Frame rate : 23.976 FPS Movie name : Black.Snake.Moan.2006.x264.seleZen Encoded date : 2024-03-27 20:03:18 UTC Writing application : mkvmerge v83.0 ('Circle Of Friends') 64-bit Writing library : libebml v1.4.5 + libmatroska v1.7.1 Cover : Yes Attachments : cover.jpg / small_cover.jpg Video ID : 1 Format : AVC Format/Info : Advanced Video Codec Format profile : High@L4.1 Format settings : CABAC / 14 Ref Frames Format settings, CABAC : Yes Format settings, Reference : 14 frames Codec ID : V_MPEG4/ISO/AVC Duration : 1 h 55 min Bit rate : 2 655 kb/s Width : 1 152 pixels Height : 480 pixels Display aspect ratio : 2.40:1 Frame rate mode : Constant Frame rate : 23.976 (24000/1001) FPS Color space : YUV Chroma subsampling : 4:2:0 Bit depth : 8 bits Scan type : Progressive Bits/(Pixel*Frame) : 0.201 Stream size : 2.15 GiB (78%) Title : -=DoMiNo=- Writing library : x264 core 164 r3190 7ed753b Encoding settings : cabac=1 / ref=14 / deblock=1:-2:-2 / analyse=0x3:0x133 / me=umh / subme=10 / psy=1 / psy_rd=1.02:0.03 / mixed_ref=1 / me_range=32 / chroma_me=1 / trellis=2 / 8x8dct=1 / cqm=0 / deadzone=21,11 / fast_pskip=0 / chroma_qp_offset=-3 / threads=15 / lookahead_threads=3 / sliced_threads=0 / nr=0 / decimate=0 / interlaced=0 / bluray_compat=0 / constrained_intra=0 / bframes=10 / b_pyramid=2 / b_adapt=2 / b_bias=0 / direct=1 / weightb=1 / open_gop=0 / weightp=2 / keyint=250 / keyint_min=23 / scenecut=40 / intra_refresh=0 / rc_lookahead=60 / rc=crf / mbtree=0 / crf=19.0 / qcomp=0.60 / qpmin=0 / qpmax=69 / qpstep=4 / vbv_maxrate=50000 / vbv_bufsize=62500 / crf_max=0.0 / nal_hrd=none / filler=0 / ip_ratio=1.34 / pb_ratio=1.30 / aq=3:0.80 Language : English Default : Yes Forced : No Color range : Limited Color primaries : BT.709 Transfer characteristics : BT.709 Matrix coefficients : BT.709 Audio #1 ID : 2 Format : AC-3 Format/Info : Audio Coding 3 Commercial name : Dolby Digital Codec ID : A_AC3 Duration : 1 h 55 min Bit rate mode : Constant Bit rate : 448 kb/s Channel(s) : 6 channels Channel layout : L R C LFE Ls Rs Sampling rate : 48.0 kHz Frame rate : 31.250 FPS (1536 SPF) Compression mode : Lossy Stream size : 370 MiB (13%) Title : DVO -НТВ+ Language : Russian Service kind : Complete Main Default : Yes Forced : No Audio #2 ID : 3 Format : AC-3 Format/Info : Audio Coding 3 Commercial name : Dolby Digital Codec ID : A_AC3 Duration : 1 h 55 min Bit rate mode : Constant Bit rate : 320 kb/s Channel(s) : 2 channels Channel layout : L R Sampling rate : 44.1 kHz Frame rate : 28.711 FPS (1536 SPF) Compression mode : Lossy Stream size : 265 MiB (9%) Title : MVO -ВСЁПОЧЕСНОКУ Language : Russian Service kind : Complete Main Default : No Forced : No Text #1 ID : 4 Format : UTF-8 Codec ID : S_TEXT/UTF8 Codec ID/Info : UTF-8 Plain Text Duration : 1 h 50 min Bit rate : 80 b/s Frame rate : 0.179 FPS Count of elements : 1181 Stream size : 64.5 KiB (0%) Language : Russian Default : No Forced : No Text #2 ID : 5 Format : UTF-8 Codec ID : S_TEXT/UTF8 Codec ID/Info : UTF-8 Plain Text Duration : 1 h 49 min Bit rate : 49 b/s Frame rate : 0.179 FPS Count of elements : 1180 Stream size : 39.8 KiB (0%) Language : English Default : No Forced : No Menu 00:00:00.000 : en:Through Their Love 00:07:23.526 : en:Say You Love Me 00:16:12.304 : en:Personal Demons 00:25:05.921 : en:Discovery 00:32:02.462 : en:Fever Dreams 00:40:34.306 : en:I Aim to Cure You 00:47:44.528 : en:Chained 00:52:51.668 : en:Showing Appreciation 00:59:07.377 : en:Whats Your Heaven? 01:05:47.860 : en:Discharge 01:15:14.301 : en:Howling Back 01:21:33.305 : en:Let It Out 01:28:02.110 : en:Night Owls 01:35:05.908 : en:That Kind of Blues 01:40:51.503 : en:Faith, Hope and Love 01:49:34.568 : en:Were Okay
Релиз: Присоединяйся к: Кликай на баннеры.

Всего файлов в раздаче: 1 
Black.Snake.Moan.2006.x264.seleZen.mkv2.77 GB

Похожие раздачи по запросу - Стон
2024-03-27 magnet Стон чёрной змеи / Black Snake Moan (2006) BDRip 1080p от Scarabey | L | Всёпочесноку 7.30 GB ↑ 0 ↓ 0

Комментарии


Зарегистрируйтесь чтобы добавить комментарий
Торрент клиент
byTorrent - программа для загрузки торрент-файлов.

Скачать byTorrent.exe (1,5 МБ)

Скачать byTorrent.zip (0,6 МБ)

Поддержи torrent.by
российских рублей
(300 российских рублей это 4$)

Обратная связь rss

End game ©