↑↓torrent.by
Поиск
Логин:  Регистрация
Пароль:

Семейный план / Сімейний план / The Family Plan (2023) WEB-DL-HEVC 2160p | 4K | HDR | Dolby Vision Profile 8 | P | UKR

download Скачать торрент-файл   magnet Магнитная ссылка Размер: 20.34 GB Раздают: 1 Качают: 1 Добавлен: 2024-03-28 11:00
Пиры будут получены из сети DHT
Последний сидер был замечен сегодня в 17:38
Информация о фильме Название: Семейный план Оригинальное название: The Family Plan Год выхода: 2023 Жанр: боевик, комедия Режиссер: Саймон Селлан Джонс В ролях: Марк Уолберг, Мишель Монахэн, Киран Хайндс, Зои Маргарет Коллетти, Ван Кросби, Илиана Норрис, Vienna Norris, Мэгги Кью, Джойнер Лукас, Келлен Бойл О фильме: Дэн Морган очень разноплановый: преданный муж, любящий отец, успешный продавец автомобилей. А еще он бывший наемный убийца. Когда его настигает прошлое, он вынужден взять ничего не подозревающую семью в уникальное путешествие. Страна: США Продолжительность: 01:58:44 Перевод: Профессиональный (многоголосый закадровый) | Цікава Ідея (Украинский) Файл Кодек: H.265 Качество: WEB-DL 2160p Видео: HEVC, HDR10, Dolby Vision Profile 8, 3840x1608 (2.40:1), 23.976 fps, 23,6 Mb/s, 10 bit Аудио 1: AC3, 48.0 kHz, 2 ch, 192 kb/s | UKR Аудио 2: E-AC3 JOC, 48.0 kHz, 6 ch, 768 kb/s | ENG Субтитры: украинские (full), английские (forced, full, SDH) Трейлер (Eng)
[+] MIGeneral Unique ID : 198858979786091216051183730436248610132 (0x959AD8ACE2D914950EDA52C935F2A554) Complete name : The Family Plan (2023) WEB-DL.2160P H.265 .mkv Format : Matroska Format version : Version 4 / Version 2 File size : 20.3 GiB Duration : 1 h 58 min Overall bit rate : 24.5 Mb/s Movie name : The Family Plan (2023) Encoded date : UTC 2024-03-03 16:41:50 Writing application : mkvmerge v82.0 ('I'm The President') 64-bit Writing library : libebml v1.4.5 + libmatroska v1.7.1 Cover : Yes Attachments : cover.jpg Video ID : 1 Format : HEVC Format/Info : High Efficiency Video Coding Format profile : Main 10@L5@High HDR format : Dolby Vision, Version 1.0, dvhe.08.06, BL+RPU, HDR10 compatible / SMPTE ST 2086, HDR10 compatible Codec ID : V_MPEGH/ISO/HEVC Duration : 1 h 58 min Bit rate : 23.6 Mb/s Width : 3 840 pixels Height : 1 608 pixels Display aspect ratio : 2.40:1 Frame rate mode : Constant Frame rate : 23.976 (24000/1001) FPS Color space : YUV Chroma subsampling : 4:2:0 (Type 2) Bit depth : 10 bits Bits/(Pixel*Frame) : 0.159 Stream size : 19.5 GiB (96%) Title : The Family Plan (2023) Language : English Default : Yes Forced : No Color range : Limited Color primaries : BT.2020 Transfer characteristics : SMPTE ST 2084 Matrix coefficients : BT.2020 non-constant Mastering display color primar : R: x=0.680000 y=0.320000, G: x=0.265000 y=0.690000, B: x=0.150000 y=0.060000, White point: x=0.312700 y=0.329000 Mastering display luminance : min: 0.0050 cd/m2, max: 1000.0000 cd/m2 Maximum Content Light Level : 575 cd/m2 Maximum Frame-Average Light Le : 251 cd/m2 Audio #1 ID : 2 Format : AC-3 Format/Info : Audio Coding 3 Format settings, Endianness : Big Codec ID : A_AC3 Duration : 1 h 58 min Bit rate mode : Constant Bit rate : 192 kb/s Channel(s) : 2 channels Channel positions : Front: L R Sampling rate : 48.0 kHz Frame rate : 31.250 FPS (1536 SPF) Bit depth : 16 bits Compression mode : Lossy Stream size : 163 MiB (1%) Title : MVO Language : Ukrainian Service kind : Complete Main Default : Yes Forced : No Audio #2 ID : 3 Format : E-AC-3 Format/Info : Enhanced Audio Coding 3 Format profile : E-AC-3+Atmos / E-AC-3 Format settings, Endianness : Big Codec ID : A_EAC3 Duration : 1 h 58 min Bit rate mode : Constant Bit rate : 768 kb/s Channel(s) : 15 objects / 6 channels Channel positions : 15 objects / Front: L C R, Side: L R, LFE Sampling rate : 48.0 kHz Frame rate : 187.500 FPS (256 SPF) Compression mode : Lossy Stream size : 652 MiB (3%) Title : Original Language : English Service kind : Complete Main Default : No Forced : No Text #1 ID : 4 Format : UTF-8 Codec ID : S_TEXT/UTF8 Codec ID/Info : UTF-8 Plain Text Duration : 1 h 57 min Bit rate : 100 b/s Count of elements : 1853 Stream size : 87.0 KiB (0%) Title : Ukrainian | Full | Apple TV Plus Language : Ukrainian Default : No Forced : No Text #2 ID : 5 Format : UTF-8 Codec ID : S_TEXT/UTF8 Codec ID/Info : UTF-8 Plain Text Duration : 31 min 17 s Bit rate : 2 b/s Count of elements : 21 Stream size : 572 Bytes (0%) Title : English | Forced | Apple TV Plus Language : English Default : No Forced : No Text #3 ID : 6 Format : UTF-8 Codec ID : S_TEXT/UTF8 Codec ID/Info : UTF-8 Plain Text Duration : 1 h 52 min Bit rate : 70 b/s Count of elements : 1792 Stream size : 58.5 KiB (0%) Title : English | Full | Apple TV Plus Language : English Default : No Forced : No Text #4 ID : 7 Format : UTF-8 Codec ID : S_TEXT/UTF8 Codec ID/Info : UTF-8 Plain Text Duration : 1 h 52 min Bit rate : 86 b/s Count of elements : 2146 Stream size : 71.8 KiB (0%) Title : English | SDH | Apple TV Plus Language : English Default : No Forced : No Menu 00:00:00.000 : :Chapter 1 00:10:00.000 : :Chapter 2 00:20:00.000 : :Chapter 3 00:30:00.000 : :Chapter 4 00:40:00.000 : :Chapter 5 00:50:00.000 : :Chapter 6 01:00:00.000 : :Chapter 7 01:10:00.000 : :Chapter 8 01:20:00.000 : :Chapter 9 01:30:00.000 : :Chapter 10 01:40:00.000 : :Chapter 11 01:50:00.000 : :Chapter 12
[+] Скриншоты

Всего файлов в раздаче: 1 
The Family Plan (2023) WEB-DL.2160P H.265 [Ukr, Eng] [Sub Ukr, Eng].mkv20.34 GB

Похожие раздачи по запросу - Семейный
2024-03-26 magnet Бременские музыканты [2023, приключения, семейный, фэнтези, комедия, WEB-DLRip-AVC] 1.46 GB ↑ 3 ↓ 0
2024-03-26 magnet Семейный план / Сімейний план / The Family Plan (2023) WEB-DL 1080p | P | UKR 9.00 GB ↑ 0 ↓ 0
2024-03-26 magnet Семейный план / The Family Plan (2023) WEB-DLRip от toxics & селезень | P | NewComers 1.47 GB ↑ 0 ↓ 1
2024-03-25 magnet Семейный план / The Family Plan (2023) WEB-DLRip от ExKinoRay | P 743.56 MB ↑ 0 ↓ 0
2024-01-07 magnet Лесси — лохматый детектив / Lassie - Ein neues Abenteuer [2023, семейный, приключения, WEB-DLRip] [Локализованный видеоряд] Dub (CPI Films) 1.46 GB ↑ 1 ↓ 0
2023-12-28 magnet По щучьему велению [2023, фэнтези, приключения, семейный, WEB-DLRip] 1.46 GB ↑ 0 ↓ 0
2023-12-25 magnet Семейный обмен / Family Switch (2023) WEB-DL 1080p | D | Condor Films Studio 4.94 GB ↑ 0 ↓ 0

Комментарии


Зарегистрируйтесь чтобы добавить комментарий
Торрент клиент
byTorrent - программа для загрузки торрент-файлов.

Скачать byTorrent.exe (1,5 МБ)

Скачать byTorrent.zip (0,6 МБ)

Поддержи torrent.by
российских рублей
(300 российских рублей это 4$)

Обратная связь rss

End game ©