↑↓torrent.by
Поиск
Логин:  Регистрация
Пароль:

Морозко [01-05 из 08] (2024) WEBRip 720p от ExKinoRay

download Скачать торрент-файл   magnet Магнитная ссылка Размер: 3.58 GB Добавлен: 2024-03-28 11:00
Пиры будут получены из сети DHT
Последний сидер был замечен 2024-03-29 19:51
Информация о фильме Название: Морозко Год выхода: 2024 Жанр: Комедия, драма Режиссер: Юлия Лысова В ролях: Аглая Тарасова, Никита Ефремов, Алиса Руденко, Николай Наумов, Виктор Логинов, Андрей Федорцов, Гоша Куценко, Геннадий Масленников, Евгений Городницкий, Елизавета Гончаренко, Николай Орловский, Иван Пищулин, Егор Анисимов, Артем Гайдуков, Владислав Ценёв, Сергей Кирпичёнок, Ион Даналаки, Денис Волков, Денис Яковлев, Сергей Кузнецов, Елена Архипова, Михаил Локшин, Иван Левин, Алина Ходжеванова, Елена Морозова, Сергей Лешуков, Полина Куценко, Егор Найдович О фильме: 33-летняя Рита работает на телевидении и производит впечатление успешной девушки. Однако на самом деле, в её душе — пустота. Работа не нравится, семьи нет, друзей и близких — тоже. Не говоря о мужчине — одиночество Риты скрашивает только чучело хорька, которое она держит на почётном месте в съемной квартире. Безжалостный диагноз, о котором она узнаёт, казалось бы, должен окончательно убить все надежды на счастье. Но именно он становится отправной точкой к её исцелению, избавлению от страхов и поиску настоящей любви. Страна: Россия Студия: Место силы, Okko, Originals Production Язык:Русский Премьера в Росcии: 06 марта 2024 года Цифровой релиз: 06 марта 2024 года Возраст: 18+ Файл Формат: MKV Качество: WEBRip 720p Видео: MPEG-4 AVC, ~ 3500 Кбит/с, 1280x720, 25 кадр/с :Аудио #01 AC3, 6 ch, 384 Кбит/с RUS :Аудио #02 E-AC3, 6 ch, 384 Кбит/с Продолжительность: 5 x ~ 00:30:00 Субтитры: Нет Реклама: Отсутствует
[+] МИ General Unique ID : 213878677081720148820745797500465085980 (0xA0E788ECF6687965859EF96A6A687E1C) Complete name : G:Morozko.S01.2024.WEB-DLRip.720p.ExKinoRayMorozko.S01.E01.2024.WEB-DLRip.720p.ExKinoRay.mkv Format : Matroska Format version : Version 4 File size : 720 MiB Duration : 23 min 34 s Overall bit rate : 4 270 kb/s Encoded date : UTC 2024-03-05 23:00:35 Writing application : mkvmerge v6.9.1 ('Blue Panther') 64bit built on Apr 18 2014 18:23:38 Writing library : libebml v1.3.0 + libmatroska v1.4.1 Video ID : 1 Format : AVC Format/Info : Advanced Video Codec Format profile : High@L4.1 Format settings : CABAC / 9 Ref Frames Format settings, CABAC : Yes Format settings, Reference frames : 9 frames Codec ID : V_MPEG4/ISO/AVC Duration : 23 min 34 s Bit rate : 3 500 kb/s Width : 1 280 pixels Height : 536 pixels Display aspect ratio : 2.40:1 Frame rate mode : Constant Frame rate : 25.000 FPS Color space : YUV Chroma subsampling : 4:2:0 Bit depth : 8 bits Scan type : Progressive Bits/(Pixel*Frame) : 0.204 Stream size : 576 MiB (80%) Writing library : x264 core 146 r2538 121396c Encoding settings : cabac=1 / ref=9 / deblock=1:-3:-3 / analyse=0x3:0x113 / me=umh / subme=11 / psy=1 / psy_rd=1.00:0.02 / mixed_ref=1 / me_range=32 / chroma_me=1 / trellis=2 / 8x8dct=1 / cqm=0 / deadzone=21,11 / fast_pskip=1 / chroma_qp_offset=-3 / threads=24 / lookahead_threads=8 / sliced_threads=0 / nr=0 / decimate=0 / interlaced=0 / bluray_compat=0 / constrained_intra=0 / bframes=10 / b_pyramid=2 / b_adapt=2 / b_bias=0 / direct=3 / weightb=1 / open_gop=0 / weightp=2 / keyint=250 / keyint_min=25 / scenecut=40 / intra_refresh=0 / rc_lookahead=60 / rc=2pass / mbtree=1 / bitrate=3500 / ratetol=1.0 / qcomp=0.60 / qpmin=0 / qpmax=69 / qpstep=4 / cplxblur=20.0 / qblur=0.5 / vbv_maxrate=14000 / vbv_bufsize=14000 / nal_hrd=none / filler=0 / ip_ratio=1.40 / aq=3:1.40 Language : Russian Default : Yes Forced : No Color range : Limited Color primaries : BT.709 Transfer characteristics : BT.709 Matrix coefficients : BT.709 Audio #1 ID : 2 Format : AC-3 Format/Info : Audio Coding 3 Commercial name : Dolby Digital Codec ID : A_AC3 Duration : 23 min 34 s Bit rate mode : Constant Bit rate : 384 kb/s Channel(s) : 6 channels Channel layout : L R C LFE Ls Rs Sampling rate : 48.0 kHz Frame rate : 31.250 FPS (1536 SPF) Compression mode : Lossy Stream size : 64.7 MiB (9%) Title : 5.1 AC-3 Language : Russian Service kind : Complete Main Default : Yes Forced : No Audio #2 ID : 3 Format : E-AC-3 Format/Info : Enhanced AC-3 Commercial name : Dolby Digital Plus Codec ID : A_EAC3 Duration : 23 min 34 s Bit rate mode : Constant Bit rate : 384 kb/s Channel(s) : 6 channels Channel layout : L R C LFE Ls Rs Sampling rate : 48.0 kHz Frame rate : 31.250 FPS (1536 SPF) Compression mode : Lossy Stream size : 64.7 MiB (9%) Title : 5.1 E-AC3 Language : Russian Service kind : Complete Main Default : No Forced : No
[+] Скриншоты
Релиз от:

Всего файлов в раздаче: 5 
Morozko.S01.E01.2024.WEB-DLRip.720p.ExKinoRay.mkv719.85 MB
Morozko.S01.E02.2024.WEB-DLRip.720p.ExKinoRay.mkv708.89 MB
Morozko.S01.E03.2024.WEB-DLRip.720p.ExKinoRay.mkv712.56 MB
Morozko.S01.E04.2024.WEB-DLRip.720p.ExKinoRay.mkv744.55 MB
Morozko.S01.E05.2024.WEB-DLRip.720p.ExKinoRay.mkv781.62 MB

Похожие раздачи по запросу - Морозко
Вчера magnet Морозко [S01] (2024) WEBRip-AVC от Generalfilm | КПК 898.42 MB ↑ 0 ↓ 1
2024-04-18 magnet Морозко [S01] (2024) WEBRip 720p от ExKinoRay 5.91 GB ↑ 0 ↓ 1
2024-04-18 magnet Морозко [S01] (2024) WEBRip 2.83 GB ↑ 0 ↓ 0
2024-04-18 magnet Морозко [S01] (2024) WEBRip 1080p 7.95 GB ↑ 0 ↓ 0
2024-04-18 magnet Морозко [S01] (2024) WEBRip-AVC от Files-x 2.75 GB ↑ 0 ↓ 0
2024-04-18 magnet Морозко [S01] (2024) WEBRip-HEVC 2160p | 4K | SDR 16.87 GB ↑ 0 ↓ 0
2024-04-12 magnet Морозко [01х01-07 из 08] (2024) WEBRip-AVC от Generalfilm | КПК 789.81 MB ↑ 0 ↓ 0

Комментарии


Зарегистрируйтесь чтобы добавить комментарий
Торрент клиент
byTorrent - программа для загрузки торрент-файлов.

Скачать byTorrent.exe (1,5 МБ)

Скачать byTorrent.zip (0,6 МБ)

Поддержи torrent.by
российских рублей
(300 российских рублей это 4$)

Обратная связь rss

End game ©