↑↓torrent.by
Поиск
Логин:  Регистрация
Пароль:

Эскадрилья «Лафайет» / Flyboys (2006) HDTVRip-AVC от DoMiNo | D | Open Matte

download Скачать торрент-файл   magnet Магнитная ссылка Размер: 2.90 GB Добавлен: 2024-03-28 11:00
Пиры будут получены из сети DHT
Последний сидер был замечен 2024-04-15 19:39
Информация о фильме Название: Эскадрилья «Лафайет» Оригинальное название: Flyboys Год выхода: 2006 Жанр: военный, история Режиссер: Тони Билл В ролях: Джеймс Франко, Мартин Хендерсон, Дэвид Эллисон, Дженнифер Декер, Тайлер Лэбин, Абдул Сэлис, Рут Брэдли, Карен Форд, Тим Пиготт-Смит, Тодд Бойс, Жан Рено, Гэйл Дауни, Мак МакДональд, Огустен Легран, Скотт Хэйзел, Филип Уинчестер, Кейт Роббинс, Кристиен Энхолт, Майкл Джибсон, Гуннар Уинберг, Дэниэл Ригби, Кайл Хеншер-Смит, Хейли Доунинг, Джэйк Канусо, Жан-Филипп Экоффе, Ральф Руллер О фильме: История легендарной американской эскадрильи «Лафайет» времен Первой мировой войны. Летный состав этой эскадрильи составляли добровольцы-иностранцы из стран, которые не находились в состоянии войны с Германией. В центре фильма — история американских юнцов, выпускников летных курсов, попадающие на войну, которая сильно отличалась от «французского курорта», куда они ехали. Это фильм о любви, мужской дружбе, мужестве, отваге и о фантастических самолетах, покоривших небо… Страна: Франция, США Студия: Flyboys Films Ltd. Продолжительность: 02:18:37 Перевод: Профессиональный (полное дублирование) Субтитры: Нет Файл Кодек: x264 Качество: HDTVRip-AVC | Open Matte Видео: 1024x554, ~2548 Кбит/сек, 23,976 кадр/сек , 0.187 бит/(Пиксели*Кадры) Аудио: AC3; 448 Kbps; CBR; 6 ch; 48 khz ***Релиз от: -=DoMiNo=- BDRip**********vs**********HDTVRip
[+] Примечания:Open Matte-версия фильма имеет большее наполнение кадра
[+] M/Ix264 info: frame I:1590 Avg QP:14.17 size: 71234 x264 info: frame P:54674 Avg QP:16.57 size: 24243 x264 info: frame B:143145 Avg QP:18.53 size: 8438 x264 info: consecutive B-frames: 4.6% 5.9% 14.9% 36.6% 14.0% 17.8% 2.9% 1.3% 0.7% 0.4% 0.3% 0.3% 0.4% General Unique ID : 82793179031015650539267445531691434623 (0x3E4962E2812803184A35E6254207C27F) Complete name : Эскадрилья «Лафайет»_(2006)_HDTVRIP-AVC_O.M_.mkv Format : Matroska Format version : Version 4 File size : 2.90 GiB Duration : 2 h 18 min Overall bit rate : 2 994 kb/s Movie name : Эскадрилья «Лафайет» Deion : История легендарной эскадрильи «Лафайет» времен Первой мировой войны. Летный состав этой эскадрильи составляли добровольцы-иностранцы из стран, которые не находились в состоянии войны с Германией.В центре фильма — история американских юнцов, выпускников летных курсов, попадающие на войну, которая сильно отличалась от «французского курорта», куда они ехали. Это фильм о любви, мужской дружбе, мужестве, отваге и о фантастических самолетах, покоривших небо… Attachments : poster.jpg ACTORS : James Franco, David Ellison, Jean Reno, Philip Winchester, Abdul Salis, Todd Boyce, Karen Ford, Mac McDonald, Scott Hazell, Ruth Bradley, Tim Pigott-Smith, Tyler Labine, Gail Downey, Augustin Legrand, Keith McErlean, Jennifer Decker, Lex Shrapnel, Martin Henderson COUNTRY : United Kingdom, United States DATE : 2006-09-22 DIRECTOR : Tony Bill GENRE : боевик, приключения, драма, история, мелодрама, военный MEDIA_TYPE : 9 ORIGINAL_TITLE : Flyboys PRODUCER : Dean Devlin, Marc Frydman PUBLISHER : Flyboys Films, Electric Entertainment, Ingenious Film Partners, Skydance Media RATING : 7.40 WRITER : David S. Ward Video ID : 1 Format : AVC Format/Info : Advanced Video Codec Format profile : High@L4.1 Format settings : CABAC / 12 Ref Frames Format settings, CABAC : Yes Format settings, ReFrames : 12 frames Codec ID : V_MPEG4/ISO/AVC Duration : 2 h 18 min Bit rate : 2 548 kb/s Width : 1 024 pixels Height : 554 pixels Display aspect ratio : 1.85:1 Frame rate mode : Constant Frame rate : 23.976 (24000/1001) FPS Color space : YUV Chroma subsampling : 4:2:0 Bit depth : 8 bits Scan type : Progressive Bits/(Pixel*Frame) : 0.187 Stream size : 2.41 GiB (83%) Title : RIP_BY_-=DoMiNo=- Writing library : x264 core 157 r2901M 7d0ff22 Encoding settings : cabac=1 / ref=12 / deblock=1:-3:-3 / analyse=0x3:0x133 / me=umh / subme=10 / psy=1 / psy_rd=1.02:0.10 / mixed_ref=1 / me_range=32 / chroma_me=1 / trellis=2 / 8x8dct=1 / cqm=0 / deadzone=21,11 / fast_pskip=0 / chroma_qp_offset=-3 / threads=6 / lookahead_threads=1 / sliced_threads=0 / nr=0 / decimate=1 / interlaced=0 / bluray_compat=0 / constrained_intra=0 / bframes=12 / b_pyramid=2 / b_adapt=2 / b_bias=0 / direct=3 / weightb=1 / open_gop=0 / weightp=2 / keyint=240 / keyint_min=24 / scenecut=40 / intra_refresh=0 / rc=2pass / mbtree=0 / bitrate=2548 / ratetol=1.0 / qcomp=0.60 / qpmin=0 / qpmax=69 / qpstep=4 / cplxblur=20.0 / qblur=0.5 / ip_ratio=1.40 / pb_ratio=1.30 / aq=3:0.90 Language : English Default : Yes Forced : No Audio ID : 2 Format : AC-3 Format/Info : Audio Coding 3 Commercial name : Dolby Digital Codec ID : A_AC3 Duration : 2 h 18 min Bit rate mode : Constant Bit rate : 448 kb/s Channel(s) : 6 channels Channel layout : L R C LFE Ls Rs Sampling rate : 48.0 kHz Frame rate : 31.250 FPS (1536 SPF) Bit depth : 16 bits Compression mode : Lossy Stream size : 444 MiB (15%) Title : DUB Language : Russian Service kind : Complete Main Default : Yes Forced : No Menu 00:00:00.000 : :Глава 1 00:08:17.414 : :Глава 2 00:17:17.703 : :Глава 3 00:25:49.298 : :Глава 4 00:33:59.955 : :Глава 5 00:42:22.957 : :Глава 6 00:51:03.394 : :Глава 7 00:59:48.919 : :Глава 8 01:08:04.998 : :Глава 9 01:16:42.515 : :Глава 10 01:25:31.710 : :Глава 11 01:34:03.847 : :Глава 12 01:42:07.330 : :Глава 13 01:50:51.061 : :Глава 14 01:59:22.614 : :Глава 15 02:07:47.910 : :Глава 16
[+] Скриншоты

Всего файлов в раздаче: 1 
Эскадрилья «Лафайет»_(2006)_HDTVRIP-AVC_O.M_[-=DoMiNo=-].mkv2.90 GB

Комментарии


Зарегистрируйтесь чтобы добавить комментарий
Торрент клиент
byTorrent - программа для загрузки торрент-файлов.

Скачать byTorrent.exe (1,5 МБ)

Скачать byTorrent.zip (0,6 МБ)

Поддержи torrent.by
российских рублей
(300 российских рублей это 4$)

Обратная связь rss

End game ©