↑↓torrent.by
Поиск
Логин:  Регистрация
Пароль:

Бременские музыканты (2023) WEB-DLRip-AVC от ExKinoRay

download Скачать торрент-файл   magnet Магнитная ссылка Размер: 2.04 GB Раздают: 1 Качают: 0 Добавлен: 2024-03-28 11:00
Пиры будут получены из сети DHT
Последний сидер был замечен сегодня в 06:11
Информация о фильме Название: Бременские музыканты Год выхода: 2023 Жанр: Приключения, семейный, фэнтези, комедия Режиссер: Алексей Нужный В ролях: Тихон Жизневский, Валентина Ляпина, Роман Курцын, Аскар Нигамедзянов, Ирина Горбачёва, Дмитрий Дюжев, Сергей Бурунов, Мария Аронова, Константин Хабенский, Юлия Пересильд, Мирон Проворов, Оксана Суркова, Павел Стонт, Мария Жидкова, Богдан Кияшко, Тереза Диуро, Геннадий Искорцев, Михаил Селиванов, Стефан Петров, Николай Самсонов, Анна Крамер, Антон Коновалов, Санта Нужная, Дея Сиберт, Александра Попова, Степан Самойленко, Никита Никитин, Сергей Федоров, Игорь Царегородцев, Артур Иванов, Елизавета Столбова, Илья Варанкин, Николай Федькин, Николай Евстафьев, Сергей Бурбон, Гарик Айвазов, Михаил Коновалов, Михаил Орлов, Алексей Проценко О фильме: Трубадур и его друзья-самозванцы — Пес, Кошка, Осел и самовлюбленный Петух — объединились, чтобы совершить подвиг. Прежде всего они должны рассмешить дочь Короля, но встреча с Принцессой грозит опасным приключением. Против Трубадура и его друзей — коварные враги, интриги и ловушки, но за любовь надо сражаться. А тут еще Принцесса сбежала из дворца. В одном клубке — преступные схемы Разбойников, интриги Сыщика, капризы и тайны королевской семейки, но веселые музыканты с неутомимым Трубадуром заставят всех плясать под свою дудку. Страна: Россия Студия: Телеканал «Россия 1», Союзмультфильм, Студия Тритэ Язык: Русский Формат: MKV Качество: WEB-DLRip-AVC Видео: MPEG-4 AVC, 1024x428, 24.000 fps, 2144 Kbps, 0.204 bit/pixel Аудио: 48 kHz, AC3, 3/2 (L,C,R,l,r) + LFE ch, ~384.00 kbps avg Субтитры: Русские (Full (Enigma))
[+] МИGeneral Unique ID : 187778425562424414760819198146466954716 (0x8D44CF2C528956728CDB91F6E8723DDC) Complete name : D:Bremenskiemyzukantu.2023.WEB-DLRip.AVC.ExKinoRay.mkv Format : Matroska Format version : Version 4 / Version 2 File size : 2.04 GiB Duration : 1 h 55 min Overall bit rate : 2 529 kb/s Movie name : Бременские музыканты (2023) from ExKinoRay Encoded date : UTC 2024-03-27 23:12:38 Writing application : mkvmerge v7.6.0 ('Garden of Dreams') 32bit built on Feb 11 2015 00:18:47 Writing library : libebml v1.3.1 + libmatroska v1.4.2 Video ID : 1 Format : AVC Format/Info : Advanced Video Codec Format profile : High@L4.1 Format settings, CABAC : Yes Format settings, ReFrames : 12 frames Codec ID : V_MPEG4/ISO/AVC Duration : 1 h 55 min Bit rate : 2 144 kb/s Width : 1 024 pixels Height : 428 pixels Display aspect ratio : 2.40:1 Frame rate mode : Constant Frame rate : 24.000 FPS Color space : YUV Chroma subsampling : 4:2:0 Bit depth : 8 bits Scan type : Progressive Bits/(Pixel*Frame) : 0.204 Stream size : 1.73 GiB (85%) Writing library : x264 core 164 r3107+58M ae98796 t_mod_New Encoding settings : cabac=1 / ref=12 / deblock=1:-2:-2 / analyse=0x3:0x133 / me=umh / subme=10 / psy=1 / fade_compensate=0.00 / psy_rd=1.00:0.00 / mixed_ref=1 / me_range=32 / chroma_me=1 / trellis=2 / 8x8dct=1 / cqm=0 / deadzone=21,11 / fast_pskip=0 / chroma_qp_offset=-2 / threads=12 / lookahead_threads=3 / sliced_threads=0 / nr=0 / decimate=0 / interlaced=0 / bluray_compat=0 / constrained_intra=0 / fgo=0 / bframes=10 / b_pyramid=2 / b_adapt=2 / b_bias=0 / direct=3 / weightb=1 / open_gop=0 / weightp=2 / keyint=240 / keyint_min=24 / scenecut=40 / intra_refresh=0 / rc=2pass / mbtree=0 / bitrate=2144 / ratetol=1.0 / qcomp=0.60 / qpmin=0:0:0 / qpmax=69:69:69 / qpstep=4 / cplxblur=20.0 / qblur=0.5 / ip_ratio=1.40 / pb_ratio=1.30 / aq=1:1.00 / aq-sensitivity=10.00 / aq-factor=1.00:1.00:1.00 / aq2=0 / aq3=0 Default : Yes Forced : No Audio ID : 2 Format : AC-3 Format/Info : Audio Coding 3 Mode extension : CM (complete main) Format settings, Endianness : Big Codec ID : A_AC3 Duration : 1 h 55 min Bit rate mode : Constant Bit rate : 384 kb/s Channel(s) : 6 channels Channel positions : Front: L C R, Side: L R, LFE Sampling rate : 48.0 kHz Frame rate : 31.250 FPS (1536 spf) Compression mode : Lossy Stream size : 318 MiB (15%) Language : Russian Default : Yes Forced : No Text ID : 3 Format : UTF-8 Codec ID : S_TEXT/UTF8 Codec ID/Info : UTF-8 Plain Text Duration : 1 h 54 min Bit rate : 63 b/s Count of elements : 1104 Stream size : 53.6 KiB (0%) Title : Full (Enigma) Language : Russian Default : No Forced : No
Релиз от: Автор релиза:

Всего файлов в раздаче: 1 
Bremenskiemyzukantu.2023.WEB-DLRip.AVC.ExKinoRay.mkv2.04 GB

Похожие раздачи по запросу - Бременские
2024-03-31 magnet Бременские музыканты (2023) WEB-DLRip-AVC от DoMiNo 745.96 MB ↑ 0 ↓ 0
2024-03-29 magnet Бременские музыканты (2023) WEB-DLRip от ExKinoRay 749.15 MB ↑ 0 ↓ 0
2024-03-26 magnet Бременские музыканты (2023) WEB-DLRip от Generalfilm | КПК 439.98 MB ↑ 0 ↓ 0
2024-03-26 magnet Бременские музыканты [2023, приключения, семейный, фэнтези, комедия, WEB-DLRip-AVC] 1.46 GB ↑ 2 ↓ 0
2024-03-26 magnet Бременские музыканты (2023) WEB-DLRip-AVC от MegaPeer 1.83 GB ↑ 0 ↓ 0
2024-03-26 magnet Бременские музыканты (2023) WEB-DLRip-AVC от ExKinoRay 1.46 GB ↑ 0 ↓ 0
2024-03-26 magnet Бременские музыканты (2023) WEB-DLRip 720p от ExKinoRay 3.14 GB ↑ 0 ↓ 0

Комментарии


Зарегистрируйтесь чтобы добавить комментарий
Торрент клиент
byTorrent - программа для загрузки торрент-файлов.

Скачать byTorrent.exe (1,5 МБ)

Скачать byTorrent.zip (0,6 МБ)

Поддержи torrent.by
российских рублей
(300 российских рублей это 4$)

Обратная связь rss

End game ©