↑↓torrent.by
Поиск
Логин:  Регистрация
Пароль:

Лиза Франкенштейн / Lisa Frankenstein (2024) WEB-DLRip-AVC от DoMiNo & селезень | D, P2

download Скачать торрент-файл   magnet Магнитная ссылка Размер: 1.92 GB Добавлен: 2024-03-28 17:00
Пиры будут получены из сети DHT
Последний сидер был замечен 2024-03-30 13:43
Информация о фильме Название: Лиза Франкенштейн Оригинальное название: Lisa Frankenstein Год выпуска: 2024 Жанр: ужасы, мелодрама, комедия Режиссер: Зельда Уильямс / Zelda Williams В ролях: Кэтрин Ньютон, Коул Спроус, Лиза Соберано, Дженна Дэвис, Трина ЛаФарг, Паола Андино, Джошуа Монтес, Chris Greening, Mae Anglim, Джои Харрис О фильме: События разворачиваются в 1989-м году. Лиза Своллоуз, ученица старших классов, не пользуется популярностью в школе, но для нее это не столь важно. Все мысли Лизы посвящены лишь прекрасному незнакомцу из викторианской эпохи, чей надгробный памятник она нашла на кладбище. Однажды ночью, во время грозы, ей случайным образом удается воскресить труп юноши, которого Лиза тут же начинает превращать в мужчину своей мечты. Но это только начало приключений романтической парочки. Чтобы полностью обрести любовь, счастье, а заодно и… пару недостающих частей тела, они отправятся в невероятно убийственное путешествие. «Лиза Франкенштейн» (2024) — полнометражный режиссерский дебют актрисы Зельды Уильямс с Коулом Спроусом и Кэтрин Ньютон в главных ролях. Выпущено: США / MXN Entertainment Продолжительность: 01:41:30 Перевод 1: Дублированный (неофициальный) | HotVoice 41 Перевод 2: Профессиональный (двухголосый, закадровый) | ViruseProject Субтитры: Английские (Full, SDH) Файл Формат: Matroska Качество: WEB-DLRip-AVC Видео: 1024x552 at 23.976 fps, x264@L4.1, ~2071 kbps Аудио 1: AC3, 2 ch, ~192 kbps - | Русский | | HotVoice 41 Аудио 2: AC3, 6 ch, ~448 kbps - | Русский | | ViruseProject Формат субтитров: softsub (SRT) ***Рип от: -=DoMiNo=-
[+] M/IGeneral Unique ID : 131303749565632229659384694068442156999 (0x62C82EABDC31025C4A93A5245C3DCFC7) Complete name : R:Lisa.Frankenstein.2024.D.P2.WEB-DLRip.x264.seleZen.mkv Format : Matroska Format version : Version 4 File size : 1.92 GiB Duration : 1 h 41 min Overall bit rate : 2 714 kb/s Frame rate : 23.976 FPS Movie name : Lisa.Frankenstein.2024.D.P2.WEB-DLRip.x264.seleZen Encoded date : 2024-03-28 11:40:54 UTC Writing application : mkvmerge v83.0 ('Circle Of Friends') 64-bit Writing library : libebml v1.4.5 + libmatroska v1.7.1 Cover : Yes Attachments : cover.jpg / small_cover.jpg Video ID : 1 Format : AVC Format/Info : Advanced Video Codec Format profile : High@L4.1 Format settings : CABAC / 14 Ref Frames Format settings, CABAC : Yes Format settings, Reference : 14 frames Codec ID : V_MPEG4/ISO/AVC Duration : 1 h 41 min Bit rate : 2 072 kb/s Width : 1 024 pixels Height : 552 pixels Display aspect ratio : 1.85:1 Frame rate mode : Constant Frame rate : 23.976 (24000/1001) FPS Color space : YUV Chroma subsampling : 4:2:0 Bit depth : 8 bits Scan type : Progressive Bits/(Pixel*Frame) : 0.153 Stream size : 1.47 GiB (76%) Title : -=DoMiNo=- Writing library : x264 core 164 r3179+58M 2d8d988 t_mod_New Encoding settings : cabac=1 / ref=14 / deblock=1:-2:-1 / analyse=0x3:0x133 / me=umh / subme=10 / psy=1 / fade_compensate=0.00 / psy_rd=1.00:0.15 / mixed_ref=1 / me_range=32 / chroma_me=1 / trellis=2 / 8x8dct=1 / cqm=0 / deadzone=21,11 / fast_pskip=0 / chroma_qp_offset=-3 / threads=17 / lookahead_threads=2 / sliced_threads=0 / nr=0 / decimate=0 / interlaced=0 / bluray_compat=0 / constrained_intra=0 / fgo=0 / bframes=9 / b_pyramid=2 / b_adapt=2 / b_bias=0 / direct=1 / weightb=1 / open_gop=0 / weightp=2 / keyint=250 / keyint_min=23 / scenecut=40 / intra_refresh=0 / rc_lookahead=60 / rc=crf / mbtree=0 / crf=18.8000 / qcomp=0.60 / qpmin=0:0:0 / qpmax=69:69:69 / qpstep=4 / vbv_maxrate=50000 / vbv_bufsize=62500 / crf_max=0.0 / nal_hrd=none / filler=0 / ip_ratio=1.40 / pb_ratio=1.30 / aq=1:0.90 / aq-sensitivity=10.00 / aq-factor=1.00:1.00:1.00 / aq2=0 / aq3=0 Language : English Default : Yes Forced : No Color range : Limited Color primaries : BT.709 Transfer characteristics : BT.709 Matrix coefficients : BT.709 Audio #1 ID : 2 Format : AC-3 Format/Info : Audio Coding 3 Commercial name : Dolby Digital Codec ID : A_AC3 Duration : 1 h 41 min Bit rate mode : Constant Bit rate : 192 kb/s Channel(s) : 2 channels Channel layout : L R Sampling rate : 48.0 kHz Frame rate : 31.250 FPS (1536 SPF) Compression mode : Lossy Stream size : 139 MiB (7%) Title : Dub -HotVoice 41 Language : Russian Service kind : Complete Main Default : Yes Forced : No Audio #2 ID : 3 Format : AC-3 Format/Info : Audio Coding 3 Commercial name : Dolby Digital Codec ID : A_AC3 Duration : 1 h 41 min Bit rate mode : Constant Bit rate : 448 kb/s Channel(s) : 6 channels Channel layout : L R C LFE Ls Rs Sampling rate : 48.0 kHz Frame rate : 31.250 FPS (1536 SPF) Compression mode : Lossy Stream size : 325 MiB (17%) Title : ViruseProject Language : Russian Service kind : Complete Main Default : No Forced : No Text #1 ID : 4 Format : UTF-8 Codec ID : S_TEXT/UTF8 Codec ID/Info : UTF-8 Plain Text Duration : 1 h 34 min Bit rate : 0 b/s Frame rate : 0.003 FPS Count of elements : 16 Stream size : 570 Bytes (0%) Title : Forced Language : Russian Default : No Forced : No Text #2 ID : 5 Format : UTF-8 Codec ID : S_TEXT/UTF8 Codec ID/Info : UTF-8 Plain Text Duration : 1 h 40 min Bit rate : 67 b/s Frame rate : 0.187 FPS Count of elements : 1127 Stream size : 49.9 KiB (0%) Title : Full Language : Russian Default : No Forced : No Text #3 ID : 6 Format : UTF-8 Codec ID : S_TEXT/UTF8 Codec ID/Info : UTF-8 Plain Text Duration : 1 h 36 min Bit rate : 60 b/s Frame rate : 0.267 FPS Count of elements : 1547 Stream size : 42.4 KiB (0%) Title : Full_eng Language : English Default : No Forced : No Text #4 ID : 7 Format : UTF-8 Codec ID : S_TEXT/UTF8 Codec ID/Info : UTF-8 Plain Text Duration : 1 h 40 min Bit rate : 68 b/s Frame rate : 0.309 FPS Count of elements : 1870 Stream size : 50.4 KiB (0%) Title : SDH_eng Language : English Default : No Forced : No Menu 00:00:00.000 : en:Chapter 01 00:07:19.939 : en:Chapter 02 00:15:51.534 : en:Chapter 03 00:18:49.421 : en:Chapter 04 00:24:38.978 : en:Chapter 05 00:32:00.837 : en:Chapter 06 00:36:53.129 : en:Chapter 07 00:40:46.571 : en:Chapter 08 00:46:14.858 : en:Chapter 09 00:48:57.896 : en:Chapter 10 00:54:32.981 : en:Chapter 11 01:01:27.187 : en:Chapter 12 01:05:57.540 : en:Chapter 13 01:12:26.429 : en:Chapter 14 01:18:12.901 : en:Chapter 15 01:21:45.780 : en:Chapter 16 01:25:17.283 : en:Chapter 17 01:29:52.183 : en:Chapter 18 01:34:42.640 : en:Chapter 19 01:37:32.977 : en:Chapter 20
Релиз: Присоединяйся к: Кликай на баннеры.

Всего файлов в раздаче: 1 
Lisa.Frankenstein.2024.D.P2.WEB-DLRip.x264.seleZen.mkv1.92 GB

Похожие раздачи по запросу - Лиза
2024-04-12 magnet Лиза Франкенштейн / Lisa Frankenstein (2024) BDRip 720p от MegaPeer | D, P2 5.35 GB ↑ 0 ↓ 0
2024-04-10 magnet Лиза Франкенштейн / Lisa Frankenstein (2024) BDRip от MegaPeer | D | HotVoice 41 1.46 GB ↑ 0 ↓ 0
2024-03-28 magnet Лиза Франкенштейн / Lisa Frankenstein (2024) WEB-DLRip от toxics & селезень | D 1.46 GB ↑ 0 ↓ 0
2024-03-27 magnet Лиза Франкенштейн / Lisa Frankenstein (2024) WEB-DL 1080p от ExKinoRay | D, P2 6.64 GB ↑ 0 ↓ 0
2024-03-05 magnet Лиза Франкенштейн / Lisa Frankenstein (2024) WEB-DLRip от toxics | P2 | ViruseProject 745.86 MB ↑ 0 ↓ 0
2024-02-29 magnet Лиза Франкенштейн / Lisa Frankenstein (2024) WEB-DLRip от MegaPeer | P2 | ViruseProject 1.46 GB ↑ 0 ↓ 0
2024-02-29 magnet Лиза Франкенштейн / Lisa Frankenstein (2024) WEBRip 1080p | ViruseProject 8.10 GB ↑ 0 ↓ 0

Комментарии


Зарегистрируйтесь чтобы добавить комментарий
Торрент клиент
byTorrent - программа для загрузки торрент-файлов.

Скачать byTorrent.exe (1,5 МБ)

Скачать byTorrent.zip (0,6 МБ)

Поддержи torrent.by
российских рублей
(300 российских рублей это 4$)

Обратная связь rss

End game ©