↑↓torrent.by
Поиск
Логин:  Регистрация
Пароль:

Летучий корабль (1979) WEBRip 1080p от DoMiNo

download Скачать торрент-файл   magnet Магнитная ссылка Размер: 725.36 MB Добавлен: 2024-03-28 17:00
Пиры будут получены из сети DHT
Последний сидер был замечен 2024-04-08 22:00
Информация о фильме Название: Летучий корабль Год выхода: 1979 Жанр: Мультфильм Режиссер: Гарри Бардин В ролях: Гарри Бардин, Михаил Боярский, Анатолий Папанов, Рогволд Суховерко, Татьяна Шабельникова О фильме: Трубочист Иванушка влюбляется в царевну Забаву, которую царь-отец хочет выдать замуж за богатея Полкана. Забава соглашается стать женой того, кто построит волшебный летучий корабль. Добрый Водяной помогает Иванушке построить корабль, секрет полётов на котором он узнаёт от Бабок-Ёжек, но по простоте выдаёт Полкану… Однако добро и справедливость торжествуют: Иванушка и Забава вместе улетают на корабле, покинув жадного царя и коварного Полкана. Страна: СССР Студия: Союзмультфильм Продолжительность: 00:18:32 Язык: Русский Файл Качество: WEBRip 1080p Видео: MPEG-4 AVC, 5265 Кбит/с, 1524x1080, 24 кадр/с Аудио: AAC, 2 ch, 192 Кбит/с Субтитры: Нет ***Рип от: -=DoMiNo=-
[+] M/IGeneral Unique ID : 156654489630417899267691764928661470512 (0x75DA8EA7F2D6FFF8D292CA7C6B1CBD30) Complete name : B:Летучий.корабль.1979.WEB-DLRip.1080p.x264.mkv Format : Matroska Format version : Version 4 File size : 725 MiB Duration : 18 min 32 s Overall bit rate : 5 467 kb/s Frame rate : 24.000 FPS Movie name : Летучий.корабль.1979.WEB-DLRip.1080p.x264 Encoded date : 2024-03-28 08:22:05 UTC Writing application : mkvmerge v83.0 ('Circle Of Friends') 64-bit Writing library : libebml v1.4.5 + libmatroska v1.7.1 Cover : Yes Attachments : cover.png / small_cover.jpg Video ID : 1 Format : AVC Format/Info : Advanced Video Codec Format profile : High@L4.1 Format settings : CABAC / 4 Ref Frames Format settings, CABAC : Yes Format settings, Reference : 4 frames Codec ID : V_MPEG4/ISO/AVC Duration : 18 min 32 s Bit rate : 5 265 kb/s Width : 1 524 pixels Height : 1 080 pixels Display aspect ratio : 1.411 Frame rate mode : Constant Frame rate : 24.000 FPS Color space : YUV Chroma subsampling : 4:2:0 Bit depth : 8 bits Scan type : Progressive Bits/(Pixel*Frame) : 0.133 Stream size : 699 MiB (96%) Title : -=DoMiNo=- Writing library : x264 core 164 r3190 7ed753b Encoding settings : cabac=1 / ref=4 / deblock=1:-1:-1 / analyse=0x3:0x133 / me=umh / subme=10 / psy=1 / psy_rd=1.00:0.15 / mixed_ref=1 / me_range=32 / chroma_me=1 / trellis=2 / 8x8dct=1 / cqm=0 / deadzone=21,11 / fast_pskip=0 / chroma_qp_offset=-3 / threads=24 / lookahead_threads=4 / sliced_threads=0 / nr=0 / decimate=0 / interlaced=0 / bluray_compat=0 / constrained_intra=0 / bframes=9 / b_pyramid=2 / b_adapt=2 / b_bias=0 / direct=1 / weightb=1 / open_gop=0 / weightp=2 / keyint=240 / keyint_min=24 / scenecut=40 / intra_refresh=0 / rc_lookahead=60 / rc=crf / mbtree=0 / crf=20.0 / qcomp=0.60 / qpmin=0 / qpmax=69 / qpstep=4 / vbv_maxrate=50000 / vbv_bufsize=62500 / crf_max=0.0 / nal_hrd=none / filler=0 / ip_ratio=1.40 / pb_ratio=1.24 / aq=1:0.90 Language : Russian Default : Yes Forced : No Color range : Limited Color primaries : BT.709 Transfer characteristics : BT.709 Matrix coefficients : BT.709 Audio ID : 2 Format : AAC LC Format/Info : Advanced Audio Codec Low Complexity Codec ID : A_AAC-2 Duration : 18 min 32 s Bit rate : 192 kb/s Channel(s) : 2 channels Channel layout : L R Sampling rate : 48.0 kHz Frame rate : 46.875 FPS (1024 SPF) Compression mode : Lossy Stream size : 25.6 MiB (4%) Language : Russian Default : Yes Forced : No

Всего файлов в раздаче: 1 
Летучий.корабль.1979.WEB-DLRip.1080p.x264.mkv725.36 MB

Комментарии


Зарегистрируйтесь чтобы добавить комментарий
Торрент клиент
byTorrent - программа для загрузки торрент-файлов.

Скачать byTorrent.exe (1,5 МБ)

Скачать byTorrent.zip (0,6 МБ)

Поддержи torrent.by
российских рублей
(300 российских рублей это 4$)

Обратная связь rss

End game ©