↑↓torrent.by
Поиск
Логин:  Регистрация
Пароль:

Калибр / Calibre (2018) WEB-DLRip-AVC от OlLanDGroup | HDRezka Studio

download Скачать торрент-файл   magnet Магнитная ссылка Размер: 1.46 GB Добавлен: 2024-03-28 17:00
Пиры будут получены из сети DHT
Последний сидер был замечен 2024-04-15 19:39
Калибр / Calibre «You Can't Bury the Truth» Год выпуска: 2018 Страна: Великобритания Производство: Wellington Films, Creative Scotland, Creative England Жанр: Триллер Режиссер: Мэтт Палмер В ролях: Джек Лауден (Vaughn), Мартин МакКанн (Marcus), Тони Кёрран (Logan McClay), Йен Пири (Brian McClay), Джордж Энтон (Angus), Кейт Брекен (Iona), Тереза Брэдли (Mary), Джо Кэссиди (Pete), Камерон Джек (Frank), Китти Ловетт (Kara), Кэл Макэнинк (Al), Роб МакДжилливрэй (Johnny Sutherland) Перевод: Профессиональный (многоголосый, закадровый) | HDRezka Studio Субтитры: Английские (полные, SDH) Реклама: Отсутствует Описание: Два старых закадычных друга отправляются на выходные в шотландскую сельскую местность. У одного из них ожидается пополнение в семействе, и парни решают напоследок хорошенько повеселиться. В первый вечер изрядно заложив за воротник, на следующий день друзья отправляются на охоту в местные леса, где сталкиваются с непредвиденными обстоятельствами. Качество: WEB-DLRip-AVC | NETFLIX Version | Calibre.2018.1080p.NF.WEBRip.DD5.1.x264-NTb Продолжительность: 01:41:01 Формат: MKV Видео кодек: MPEG-4 AVC Аудио кодек: AC3 Видео: 1024x552 (1.85:1), 24,000 fps, x264 ~1 492 kbps avg, 0.110 bit/pixel Аудио #1: 48 kHz, AC3 Dolby Digital, 2 (L,R) ch, ~192.00 kbps avg | RUS (HDRezka Studio) Аудио #2: 48 kHz, AC3 Dolby Digital, 3/2 (L,C,R,l,r) + LFE ch, ~384.00 kbps avg | ENG Дата премьеры (мир): 22 июня 2018 Дата премьеры (РФ): Релиз от: Rip by:
[+] MediaInfo Общее Уникальный идентификатор : 223146482864137530071814199232151214177 (0xA7E073078162F9BDB6D2F3C845C0D861) Полное имя : F:OlLanDGroupCalibre.2018.WEB-DLRip(AVC).OlLanDGroup.mkv Формат : Matroska Версия формата : Version 4 / Version 2 Размер файла : 1,46 Гбайт Продолжительность : 1 ч. 41 м. Общий поток : 2069 Кбит/сек Название фильма : Calibre.2018 #TorpedoUK# Дата кодирования : UTC 2018-07-13 14:44:11 Программа кодирования : mkvmerge v8.3.0 ('Over the Horizon') 64bit Библиотека кодирования : libebml v1.3.1 + libmatroska v1.4.2 Видео Идентификатор : 1 Формат : AVC Формат/Информация : Advanced Video Codec Профиль формата : High@L4.1 Параметр CABAC формата : Да Параметр ReFrames формата : 10 кадров Идентификатор кодека : V_MPEG4/ISO/AVC Продолжительность : 1 ч. 41 м. Битрейт : 1492 Кбит/сек Ширина : 1024 пикселя Высота : 552 пикселя Соотношение сторон : 1,85:1 Режим частоты кадров : Постоянный Частота кадров : 24,000 кадра/сек Цветовое пространство : YUV Субдискретизация насыщенности : 4:2:0 Битовая глубина : 8 бит Тип развёртки : Прогрессивная Бит/(Пиксели*Кадры) : 0.110 Размер потока : 1,05 Гбайт (72%) Библиотека кодирования : x264 core 146 r2538 121396c Настройки программы : cabac=1 / ref=10 / deblock=1:-2:-3 / analyse=0x3:0x113 / me=umh / subme=11 / psy=1 / psy_rd=0.95:0.07 / mixed_ref=1 / me_range=48 / chroma_me=1 / trellis=2 / 8x8dct=1 / cqm=0 / deadzone=21,11 / fast_pskip=1 / chroma_qp_offset=-3 / threads=6 / lookahead_threads=1 / sliced_threads=0 / nr=0 / decimate=1 / interlaced=0 / bluray_compat=0 / constrained_intra=0 / bframes=10 / b_pyramid=2 / b_adapt=2 / b_bias=0 / direct=3 / weightb=1 / open_gop=0 / weightp=2 / keyint=240 / keyint_min=24 / scenecut=40 / intra_refresh=0 / rc_lookahead=40 / rc=2pass / mbtree=1 / bitrate=1492 / ratetol=1.0 / qcomp=0.60 / qpmin=0 / qpmax=69 / qpstep=4 / cplxblur=20.0 / qblur=0.5 / vbv_maxrate=50000 / vbv_bufsize=62500 / nal_hrd=none / filler=0 / ip_ratio=1.40 / aq=1:1.00 Default : Да Forced : Нет Аудио #1 Идентификатор : 2 Формат : AC-3 Формат/Информация : Audio Coding 3 Расширение режима : CM (complete main) Параметр Endianness формата : Big Идентификатор кодека : A_AC3 Продолжительность : 1 ч. 41 м. Вид битрейта : Постоянный Битрейт : 192 Кбит/сек Каналы : 2 канала Расположение каналов : Front: L R Частота : 48,0 КГц Частота кадров : 31,250 кадров/сек (1536 spf) Битовая глубина : 16 бит Метод сжатия : С потерями Размер потока : 139 Мбайт (9%) Заголовок : MVO Язык : Russian Default : Да Forced : Нет Аудио #2 Идентификатор : 3 Формат : AC-3 Формат/Информация : Audio Coding 3 Расширение режима : CM (complete main) Параметр Endianness формата : Big Идентификатор кодека : A_AC3 Продолжительность : 1 ч. 41 м. Вид битрейта : Постоянный Битрейт : 384 Кбит/сек Каналы : 6 каналов Расположение каналов : Front: L C R, Side: L R, LFE Частота : 48,0 КГц Частота кадров : 31,250 кадров/сек (1536 spf) Битовая глубина : 16 бит Метод сжатия : С потерями Размер потока : 277 Мбайт (19%) Заголовок : Original Язык : English Default : Нет Forced : Нет Текст #1 Идентификатор : 4 Формат : UTF-8 Идентификатор кодека : S_TEXT/UTF8 Идентификатор кодека/Информация : UTF-8 Plain Text Продолжительность : 1 ч. 33 м. Битрейт : 37 бит/сек Count of elements : 758 Размер потока : 26,0 Кбайт (0%) Заголовок : Full Язык : English Default : Нет Forced : Нет Текст #2 Идентификатор : 5 Формат : UTF-8 Идентификатор кодека : S_TEXT/UTF8 Идентификатор кодека/Информация : UTF-8 Plain Text Продолжительность : 1 ч. 33 м. Битрейт : 39 бит/сек Count of elements : 796 Размер потока : 26,9 Кбайт (0%) Заголовок : SDH Язык : English Default : Нет Forced : Нет
[+] Скриншоты

Всего файлов в раздаче: 1 
Calibre.2018.WEB-DLRip(AVC).OlLanDGroup.mkv1.46 GB

Комментарии

evg_c
ОТЛИЧНЫЙ ФИЛЬМ,с интересным сюжетом.посмотрел с удовольствием!


Зарегистрируйтесь чтобы добавить комментарий
Торрент клиент
byTorrent - программа для загрузки торрент-файлов.

Скачать byTorrent.exe (1,5 МБ)

Скачать byTorrent.zip (0,6 МБ)

Поддержи torrent.by
российских рублей
(300 российских рублей это 4$)

Обратная связь rss

End game ©