↑↓torrent.by
Поиск
Логин:  Регистрация
Пароль:

Столь долгое отсутствие / Une aussi longue absence [1961, Франция, Италия, драма, BDRemux 1080p] Dub (к/с им.Горького) от Bloomsbury

download Скачать торрент-файл   magnet Магнитная ссылка Размер: 26.87 GB Добавлен: il68k 2024-03-29 01:39
Пиры будут получены из сети DHT
Последний сидер был замечен 2024-04-14 12:03
Столь долгое отсутствие / Une aussi longue absence

Страна: Франция, Италия Студия: Procinex, Societé Cinématographique Lyre, Galatea Film Жанр: драма Год выпуска: 1961 Продолжительность: 01:38:16
Перевод: Профессиональный (дублированный) киностудия им. М. Горького Субтитры: русские (2 вида), английские, японские (2 вида) Оригинальная аудиодорожка: французский
Режиссер: Анри Кольпи
В ролях: Алида Вали, Жорж Вильсон, Шарль Блаветт, Амедеи, Поль Фуавр, Пьер Парель, Катрин Фонтеней, Диана Лепрье, Нан Жермон, Шарль Буйо
Описание: Много лет спустя после войны Тереза Ланглуа встречает бродягу и узнает в нем мужа, которого считала погибшим. Оказывается, после допросов в гестапо он потерял память и живет бездомным, не помня ни ее, ни дороги домой...

СЕМПЛ
Тип релиза: BDRemux 1080p Контейнер: MKV Видео: H.264/AVC, 1920x1080 (2,55:1), ~37.8 Mb/s avg, 23,976 fps Аудио 1: Russian / AC3 / 2.0 / 48 kHz / 192 kbps Аудио 2: French / FLAC / 2.0 / 96 kHz / 943 kbps / 24-bit Аудио 3: French / AC3 / 2.0 / 48 kHz / 224 kbps Формат субтитров: softsub (SRT) – русские, английские; prerendered (Blu-ray/PGS/SUP) – японские. Релиз от: Bloomsbury Раздается «по многочисленным просьбам трудящихся» разных стран.
[+] Дополнительная информация Благодарность chemodan71 за помощь в розыске и скачивании исходника. Для лучшей совместимости с разного рода бытовыми проигрывателями и устройствами (ТВ и др.) оригинальная звуковая дорожка Flac продублирована в AC3. Добавлены звуковая дорожка (дубляж), русские субтитры на титры (форсированные) и английские субтитры (исправлены мелкие ошибки и описки). Добавлены русские субтитры (исправлены мелкие ошибки и описки).
[+] Номинации и награды Каннский кинофестиваль, 1961 год Победитель (1): Золотая пальмовая ветвь Британская академия, 1963 год Номинации (2): Лучший фильм Лучший иностранный актер (Жорж Вильсон)
[+] MediaInfo
Общее
Уникальный идентификатор                 : 103251561458901257804329987753488010072 (0x4DAD8703CEA686B792E4E7DE3491CB58)
Полное имя                               : Une.aussi.longue.absence.1961.BDRemux.1080p.mkv
Формат                                   : Matroska
Версия формата                           : Version 4
Размер файла                             : 26,9 Гбайт
Продолжительность                        : 1 ч. 38 м.
Режим общего битрейта                    : Переменный
Общий поток                              : 39,2 Мбит/сек
Название фильма                          : Une aussi longue absence (1961) 
Дата кодирования                         : UTC 2024-03-24 10:32:49
Программа кодирования                    : mkvmerge v55.0.0 ('Waiting For Space') 32-bit
Библиотека кодирования                   : libebml v1.4.2 + libmatroska v1.6.4

Видео
Идентификатор                            : 1
ID in the original source medium         : 4113 (0x1011)
Формат                                   : AVC
Формат/Информация                        : Advanced Video Codec
Профиль формата                          : High@L4.1
Настройки формата                        : CABAC / 2 Ref Frames
Параметр CABAC формата                   : Да
Параметр RefFrames формата               : 2 кадра
Параметр GOP формата                     : M=3, N=24
Идентификатор кодека                     : V_MPEG4/ISO/AVC
Продолжительность                        : 1 ч. 38 м.
Битрейт                                  : 37,8 Мбит/сек
Ширина                                   : 1 920 пикселей
Высота                                   : 1 080 пикселей
Соотношение сторон                       : 16:9
Режим частоты кадров                     : Постоянный
Частота кадров                           : 23,976 (24000/1001) кадра/сек
Цветовое пространство                    : YUV
Субдискретизация насыщенности            : 4:2:0
Битовая глубина                          : 8 бит
Тип развёртки                            : Прогрессивная
Бит/(Пиксели*Кадры)                      : 0.760
Размер потока                            : 25,9 Гбайт (96%)
Default                                  : Да
Forced                                   : Нет
Носитель оригинала                       : Blu-ray

Аудио #1
Идентификатор                            : 2
Формат                                   : AC-3
Формат/Информация                        : Audio Coding 3
Коммерческое название                    : Dolby Digital
Идентификатор кодека                     : A_AC3
Продолжительность                        : 1 ч. 38 м.
Вид битрейта                             : Постоянный
Битрейт                                  : 192 Кбит/сек
Каналы                                   : 2 канала
Channel layout                           : L R
Частота                                  : 48,0 КГц
Частота кадров                           : 31,250 кадров/сек (1536 SPF)
Метод сжатия                             : С потерями
Размер потока                            : 135 Мбайт (0%)
Язык                                     : Russian
Service kind                             : Complete Main
Default                                  : Да
Forced                                   : Нет

Аудио #2
Идентификатор                            : 3
Формат                                   : FLAC
Формат/Информация                        : Free Lossless Audio Codec
Идентификатор кодека                     : A_FLAC
Продолжительность                        : 1 ч. 38 м.
Вид битрейта                             : Переменный
Битрейт                                  : 943 Кбит/сек
Каналы                                   : 2 канала
Частота                                  : 96,0 КГц
Частота кадров                           : 23,438 кадра/сек (4096 SPF)
Битовая глубина                          : 24 бит
Метод сжатия                             : Без потерь
Размер потока                            : 663 Мбайт (2%)
Библиотека кодирования                   : libFLAC 1.2.1 (UTC 2007-09-17)
Язык                                     : French
Default                                  : Нет
Forced                                   : Нет

Аудио #3
Идентификатор                            : 4
Формат                                   : AC-3
Формат/Информация                        : Audio Coding 3
Коммерческое название                    : Dolby Digital
Идентификатор кодека                     : A_AC3
Продолжительность                        : 1 ч. 38 м.
Вид битрейта                             : Постоянный
Битрейт                                  : 224 Кбит/сек
Каналы                                   : 2 канала
Channel layout                           : L R
Частота                                  : 48,0 КГц
Частота кадров                           : 31,250 кадров/сек (1536 SPF)
Метод сжатия                             : С потерями
Размер потока                            : 157 Мбайт (0%)
Язык                                     : French
Service kind                             : Complete Main
Default                                  : Нет
Forced                                   : Нет

Текст #1
Идентификатор                            : 5
Формат                                   : UTF-8
Идентификатор кодека                     : S_TEXT/UTF8
Идентификатор кодека/Информация          : UTF-8 Plain Text
Продолжительность                        : 2 м. 53 с.
Битрейт                                  : 34 бит/сек
Count of elements                        : 10
Размер потока                            : 742 байт (0%)
Заголовок                                : Forced
Язык                                     : Russian
Default                                  : Да
Forced                                   : Нет

Текст #2
Идентификатор                            : 6
Формат                                   : UTF-8
Идентификатор кодека                     : S_TEXT/UTF8
Идентификатор кодека/Информация          : UTF-8 Plain Text
Продолжительность                        : 1 ч. 37 м.
Битрейт                                  : 39 бит/сек
Count of elements                        : 600
Размер потока                            : 28,4 Кбайт (0%)
Язык                                     : Russian
Default                                  : Нет
Forced                                   : Нет

Текст #3
Идентификатор                            : 7
Формат                                   : UTF-8
Идентификатор кодека                     : S_TEXT/UTF8
Идентификатор кодека/Информация          : UTF-8 Plain Text
Продолжительность                        : 1 ч. 37 м.
Битрейт                                  : 26 бит/сек
Count of elements                        : 721
Размер потока                            : 19,2 Кбайт (0%)
Язык                                     : English
Default                                  : Нет
Forced                                   : Нет

Текст #4
Идентификатор                            : 8
ID in the original source medium         : 4608 (0x1200)
Формат                                   : PGS
Режим смешивания                         : zlib
Идентификатор кодека                     : S_HDMV/PGS
Идентификатор кодека/Информация          : Picture based subtitle format used on BDs/HD-DVDs
Продолжительность                        : 1 ч. 38 м.
Битрейт                                  : 12,2 Кбит/сек
Count of elements                        : 1270
Размер потока                            : 8,59 Мбайт (0%)
Язык                                     : Japanese
Default                                  : Нет
Forced                                   : Нет
Носитель оригинала                       : Blu-ray

Текст #5
Идентификатор                            : 9
ID in the original source medium         : 4609 (0x1201)
Формат                                   : PGS
Режим смешивания                         : zlib
Идентификатор кодека                     : S_HDMV/PGS
Идентификатор кодека/Информация          : Picture based subtitle format used on BDs/HD-DVDs
Продолжительность                        : 1 ч. 38 м.
Битрейт                                  : 7 812 бит/сек
Count of elements                        : 1270
Размер потока                            : 5,49 Мбайт (0%)
Язык                                     : Japanese
Default                                  : Нет
Forced                                   : Нет
Носитель оригинала                       : Blu-ray

Меню
00:00:00.000                             : en:Chapter 01
00:00:21.021                             : en:Chapter 02
00:01:47.107                             : en:Chapter 03
00:03:44.766                             : en:Chapter 04
00:09:35.575                             : en:Chapter 05
00:12:27.455                             : en:Chapter 06
00:15:23.464                             : en:Chapter 07
00:18:44.248                             : en:Chapter 08
00:19:35.966                             : en:Chapter 09
00:24:53.534                             : en:Chapter 10
00:28:18.989                             : en:Chapter 11
00:39:06.344                             : en:Chapter 12
00:45:46.577                             : en:Chapter 13
00:51:16.907                             : en:Chapter 14
01:01:29.728                             : en:Chapter 15
01:06:29.235                             : en:Chapter 16
01:07:46.688                             : en:Chapter 17
01:18:16.150                             : en:Chapter 18
01:25:19.990                             : en:Chapter 19
01:32:43.433                             : en:Chapter 20
01:35:19.714                             : en:Chapter 21
[+] Скриншоты

Всего файлов в раздаче: 1 
Une.aussi.longue.absence.1961.BDRemux.1080p.mkv26.87 GB

Похожие раздачи по запросу - Столь
2024-03-29 magnet Столь долгое отсутствие / Une aussi longue absence [1961, Франция, Италия, драма, BDRip-AVC] Dub (к/с им.Горького) от msltel 1.88 GB ↑ 0 ↓ 0

Комментарии


Зарегистрируйтесь чтобы добавить комментарий
Торрент клиент
byTorrent - программа для загрузки торрент-файлов.

Скачать byTorrent.exe (1,5 МБ)

Скачать byTorrent.zip (0,6 МБ)

Поддержи torrent.by
российских рублей
(300 российских рублей это 4$)

Обратная связь rss

End game ©