↑↓torrent.by
Поиск
Логин:  Регистрация
Пароль:

Столь долгое отсутствие / Une aussi longue absence [1961, Франция, Италия, драма, BDRip-AVC] Dub (к/с им.Горького) от msltel

download Скачать торрент-файл   magnet Магнитная ссылка Размер: 1.88 GB Добавлен: il68k 2024-03-29 02:35
Пиры будут получены из сети DHT
Последний сидер был замечен 2024-04-07 10:09
Столь долгое отсутствие / Une aussi longue absence

Производство: Франция, Италия / Galatea Film, Procinex, Societé Cinématographique Lyre Жанр: драма Режиссер: Анри Кольпи Актеры: Алида Вали, Жорж Вильсон, Шарль Блаветт, Амедеи, Поль Фуавр, Пьер Парель, Катрин Фонтеней, Диана Лепрье, Нан Жермон, Шарль Буйо Описание: Много лет спустя после войны Тереза Ланглуа встречает бродягу и узнает в нем мужа, которого считала погибшим. Оказывается, после допросов в гестапо он потерял память и живет бездомным, не помня ни ее, ни дороги домой... Релиз от: msltel Продолжительность: 01:38:15 Качество видео: BDRip-AVC Перевод: дублированный Язык озвучки: русский, французский Субтитры: русские, английские Видео: AVC/H.264, 1024x402, ~2349 Kbps Аудио 1: AC3, 2 ch, 192 Kbps | русский (DUB к/с им. Горького) Аудио 2: AC3, 2 ch, 192 Kbps | французский
[+] Награды Британская академия, 1963 год Номинации (2): Лучший фильм Лучший иностранный актер (Жорж Вильсон) Каннский кинофестиваль, 1961 год Победитель (1): Золотая пальмовая ветвь
[+] MediaInfo
Общее
Уникальный идентификатор                 : 25968210580724338500335315619870691362 (0x13894BA1B0DD92A5C67F987BEC985022)
Полное имя                               : Столь долгое отсутствие.1961.BDRip AVC msltel.mkv
Формат                                   : Matroska
Версия формата                           : Version 4
Размер файла                             : 1,88 Гбайт
Продолжительность                        : 1 ч. 38 м.
Общий поток                              : 2 735 Кбит/сек
Частота кадров                           : 23,976 кадра/сек
Название фильма                          : Столь долгое отсутствие.1961.BDRip AVC msltel
Дата кодирования                         : 2024-03-28 10:33:11 UTC
Программа кодирования                    : mkvmerge v44.0.0 ('Domino') 64-bit
Библиотека кодирования                   : libebml v1.3.10 + libmatroska v1.5.2

Видео
Идентификатор                            : 1
Формат                                   : AVC
Формат/Информация                        : Advanced Video Codec
Профиль формата                          : High@L4.1
Настройки формата                        : CABAC / 16 Ref Frames
Параметр CABAC формата                   : Да
Параметр RefFrames формата               : 16 кадров
Идентификатор кодека                     : V_MPEG4/ISO/AVC
Продолжительность                        : 1 ч. 38 м.
Битрейт                                  : 2 349 Кбит/сек
Ширина                                   : 1 024 пикселя
Высота                                   : 402 пикселя
Соотношение сторон                       : 2,547
Режим частоты кадров                     : Постоянный
Частота кадров                           : 23,976 (24000/1001) кадра/сек
Цветовое пространство                    : YUV
Субдискретизация насыщенности            : 4:2:0
Битовая глубина                          : 8 бит
Тип развёртки                            : Прогрессивная
Бит/(Пиксели*Кадры)                      : 0.238
Размер потока                            : 1,61 Гбайт (86%)
Библиотека кодирования                   : x264 core 164 r3179 12426f5
Настройки программы                      : cabac=1 / ref=16 / deblock=1:-3:-3 / analyse=0x3:0x113 / me=umh / subme=11 / psy=1 / psy_rd=1.00:0.00 / mixed_ref=1 / me_range=32 / chroma_me=1 / trellis=2 / 8x8dct=1 / cqm=0 / deadzone=21,11 / fast_pskip=0 / chroma_qp_offset=-2 / threads=12 / lookahead_threads=3 / sliced_threads=0 / nr=0 / decimate=0 / interlaced=0 / bluray_compat=0 / constrained_intra=0 / bframes=13 / b_pyramid=2 / b_adapt=2 / b_bias=0 / direct=1 / weightb=1 / open_gop=0 / weightp=2 / keyint=230 / keyint_min=23 / scenecut=40 / intra_refresh=0 / rc_lookahead=40 / rc=crf / mbtree=0 / crf=18.0 / qcomp=0.60 / qpmin=0 / qpmax=69 / qpstep=4 / vbv_maxrate=50000 / vbv_bufsize=62500 / crf_max=0.0 / nal_hrd=none / filler=0 / ip_ratio=1.40 / pb_ratio=1.30 / aq=3:1.00
Язык                                     : French
Default                                  : Да
Forced                                   : Нет

Аудио #1
Идентификатор                            : 2
Формат                                   : AC-3
Формат/Информация                        : Audio Coding 3
Коммерческое название                    : Dolby Digital
Идентификатор кодека                     : A_AC3
Продолжительность                        : 1 ч. 38 м.
Вид битрейта                             : Постоянный
Битрейт                                  : 192 Кбит/сек
Каналы                                   : 2 канала
Channel layout                           : L R
Частота                                  : 48,0 КГц
Частота кадров                           : 31,250 кадров/сек (1536 SPF)
Метод сжатия                             : С потерями
Размер потока                            : 135 Мбайт (7%)
Заголовок                                : DUB к/с им. Горького
Язык                                     : Russian
Service kind                             : Complete Main
Default                                  : Да
Forced                                   : Нет

Аудио #2
Идентификатор                            : 3
Формат                                   : AC-3
Формат/Информация                        : Audio Coding 3
Коммерческое название                    : Dolby Digital
Идентификатор кодека                     : A_AC3
Продолжительность                        : 1 ч. 38 м.
Вид битрейта                             : Постоянный
Битрейт                                  : 192 Кбит/сек
Каналы                                   : 2 канала
Channel layout                           : L R
Частота                                  : 48,0 КГц
Частота кадров                           : 31,250 кадров/сек (1536 SPF)
Метод сжатия                             : С потерями
Размер потока                            : 135 Мбайт (7%)
Заголовок                                : оригинал
Язык                                     : French
Service kind                             : Complete Main
Default                                  : Нет
Forced                                   : Нет

Текст #1
Идентификатор                            : 4
Формат                                   : UTF-8
Идентификатор кодека                     : S_TEXT/UTF8
Идентификатор кодека/Информация          : UTF-8 Plain Text
Продолжительность                        : 1 ч. 37 м.
Битрейт                                  : 39 бит/сек
Частота кадров                           : 0,103 кадр/сек
Count of elements                        : 600
Размер потока                            : 28,4 Кбайт (0%)
Заголовок                                : русские
Язык                                     : Russian
Default                                  : Нет
Forced                                   : Нет

Текст #2
Идентификатор                            : 5
Формат                                   : UTF-8
Идентификатор кодека                     : S_TEXT/UTF8
Идентификатор кодека/Информация          : UTF-8 Plain Text
Продолжительность                        : 1 ч. 37 м.
Битрейт                                  : 26 бит/сек
Частота кадров                           : 0,123 кадр/сек
Count of elements                        : 721
Размер потока                            : 19,2 Кбайт (0%)
Заголовок                                : английские
Язык                                     : English
Default                                  : Нет
Forced                                   : Нет

Меню
00:00:00.000                             : en:Chapter 01
00:00:21.021                             : en:Chapter 02
00:01:47.107                             : en:Chapter 03
00:03:44.766                             : en:Chapter 04
00:09:35.575                             : en:Chapter 05
00:12:27.455                             : en:Chapter 06
00:15:23.464                             : en:Chapter 07
00:18:44.248                             : en:Chapter 08
00:19:35.966                             : en:Chapter 09
00:24:53.534                             : en:Chapter 10
00:28:18.989                             : en:Chapter 11
00:39:06.344                             : en:Chapter 12
00:45:46.577                             : en:Chapter 13
00:51:16.907                             : en:Chapter 14
01:01:29.728                             : en:Chapter 15
01:06:29.235                             : en:Chapter 16
01:07:46.688                             : en:Chapter 17
01:18:16.150                             : en:Chapter 18
01:25:19.990                             : en:Chapter 19
01:32:43.433                             : en:Chapter 20
01:35:19.714                             : en:Chapter 21
[+] Скриншоты

Всего файлов в раздаче: 1 
Столь долгое отсутствие.1961.BDRip AVC msltel.mkv1.88 GB

Похожие раздачи по запросу - Столь
2024-03-29 magnet Столь долгое отсутствие / Une aussi longue absence [1961, Франция, Италия, драма, BDRemux 1080p] Dub (к/с им.Горького) от Bloomsbury 26.87 GB ↑ 0 ↓ 0

Комментарии


Зарегистрируйтесь чтобы добавить комментарий
Торрент клиент
byTorrent - программа для загрузки торрент-файлов.

Скачать byTorrent.exe (1,5 МБ)

Скачать byTorrent.zip (0,6 МБ)

Поддержи torrent.by
российских рублей
(300 российских рублей это 4$)

Обратная связь rss

End game ©