↑↓torrent.by
Поиск
Логин:  Регистрация
Пароль:

Чёрное солнце [01-10 из 12] (2023) WEBRip 1080p

download Скачать торрент-файл   magnet Магнитная ссылка Размер: 22.42 GB Раздают: 0 Качают: 1 Добавлен: 2024-03-29 05:00
Пиры будут получены из сети DHT
Последний сидер был замечен 2024-03-31 20:47
Информация о фильме Название: Чёрное солнце Год выхода: 2023 Жанр: Детектив, драма Режиссёр: Анна Носатова В ролях: Юрий Чурсин, Максим Стоянов, Виктория Корлякова, Петр Кислов, Григорий Зельцер, Петар Зекавица, Пётр Романов, Александра Большакова, Полина Ватага, Петр Нечипоренко, Сергей Козик, Валерий Скорокосов, Ксения Плюснина, Дарья Румянцева, Дмитрий Сотниченко, Артур Казберов, Светлана Нестерова, Елизавета Потапова, Александр Силаев, Татьяна Косач-Брындина, Роман Каун, Дарья Сергеева, Владимир Якимов, Ника Борисова, Михаил Апальков, Михаил Коновалов, Вероника Ряполова, Вадим Пироженко О фильме: Оперуполномоченный капитан Евгений Чагин отправляется в лес под Выборгом, где, по заявлению молдаванки Габи, обратившейся в полицию, пропала ее сестра. На месте поисков Чагин обнаруживает остатки костра, и на следующий день узнает, что Габи тоже исчезла. Вместе с тем в городе появляется новый следователь — Игорь Жук, он прибывает на место убийства, — одноклассник Чагина убил нескольких бандитов. Чагин пытался помочь однокласснику сокрыть улики. Между Жуком и Чагиным зарождается конфликт, выливающийся в увольнение Чагина из полиции. Вскоре в том же лесу, близ места, куда ездили Чагин и Габи, находят труп без головы и кистей рук. Жуку и Чагину приходится объединиться, чтобы поймать убийцу. Они выясняют, что ранее полиция находила такие же тела, но не связывала дела друг с другом. Становится очевидно, что поймать убийцу не так-то просто, и действует, он, похоже, не один. Страна: Россия Студия: Кинокомпания «Драйв», Телекомпания НТВ Продолжительность: 10 x ~ 00:50:00 Язык: Русский Премьера в Росcии: 01 марта 2024 года Цифровой релиз: 01 марта 2024 года Примечание: Без рекламы Возраст: 18+ Файл Формат: MKV Качество: WEBRip 1080p Видео: MPEG-4 AVC, ~ 6144 Кбит/с, 1920x1080 Звук: AC3, 2 ch, 192 Кбит/с Субтитры: Отсутствуют Семпл
[+] Скриншоты
[+] MIОбщее Уникальный идентификатор : 289674681981550120270312608393607506484 (0xD9ED507D8FAA1DF648A5975D933FEA34) Полное имя : C:UsersAdminDesktopChyornoe.solnce.S01.2023.WEB-DL.1080pChyornoe.solnce.S01.E01.2023.WEB-DL.1080p.mkv Формат : Matroska Версия формата : Version 4 Размер файла : 2,25 Гбайт Продолжительность : 51 м. 3 с. Режим общего битрейта : Постоянный Общий поток : 6 302 Кбит/сек Название фильма : Chyornoe.solnce.S01.E01.2023.WEB-DL.1080p Дата кодирования : UTC 2024-03-01 04:59:54 Программа кодирования : mkvmerge v82.0 ('I'm The President') 64-bit Библиотека кодирования : libebml v1.4.5 + libmatroska v1.7.1 Attachments : poster.jpeg Видео Идентификатор : 1 Формат : AVC Формат/Информация : Advanced Video Codec Профиль формата : Baseline@L4 Настройки формата : 2 Ref Frames Параметр CABAC формата : Нет Параметр RefFrames формата : 2 кадра Параметр GOP формата : M=1, N=25 Идентификатор кодека : V_MPEG4/ISO/AVC Продолжительность : 51 м. 3 с. Вид битрейта : Постоянный Битрейт : 6 144 Кбит/сек Ширина : 1 920 пикселей Высота : 1 080 пикселей Соотношение сторон : 16:9 Режим частоты кадров : Постоянный Частота кадров : 25,000 кадров/сек Цветовое пространство : YUV Субдискретизация насыщенности : 4:2:0 Битовая глубина : 8 бит Тип развёртки : Прогрессивная Бит/(Пиксели*Кадры) : 0.119 Размер потока : 2,18 Гбайт (97%) Default : Да Forced : Нет Аудио Идентификатор : 2 Формат : AC-3 Формат/Информация : Audio Coding 3 Коммерческое название : Dolby Digital Идентификатор кодека : A_AC3 Продолжительность : 51 м. 3 с. Вид битрейта : Постоянный Битрейт : 192 Кбит/сек Каналы : 2 канала Channel layout : L R Частота : 48,0 КГц Частота кадров : 31,250 кадров/сек (1536 SPF) Метод сжатия : С потерями Размер потока : 70,1 Мбайт (3%) Заголовок : Язык : Russian Service kind : Complete Main Default : Да Forced : Нет

Всего файлов в раздаче: 10 
Chyornoe.solnce.S01.E01.2023.WEB-DL.1080p.mkv2.25 GB
Chyornoe.solnce.S01.E02.2023.WEB-DL.1080p.mkv2.09 GB
Chyornoe.solnce.S01.E03.2023.WEB-DL.1080p.mkv2.28 GB
Chyornoe.solnce.S01.E04.2023.WEB-DL.1080p.mkv2.24 GB
Chyornoe.solnce.S01.E05.2023.WEB-DL.1080p.mkv2.34 GB
Chyornoe.solnce.S01.E06.2023.WEB-DL.1080p.mkv2.28 GB
Chyornoe.solnce.S01.E07.2023.WEB-DL.1080p.mkv2.22 GB
Chyornoe.solnce.S01.E08.2023.WEB-DL.1080p.mkv2.16 GB
Chyornoe.solnce.S01.E09.2023.WEB-DL.1080p.mkv2.34 GB
Chyornoe.solnce.S01.E10.2023.WEB-DL.1080p.mkv2.23 GB

Похожие раздачи по запросу - Чёрное
Сегодня magnet Чёрное солнце [S01] (2023) WEBRip от Generalfilm | КПК 2.27 GB ↑ 0 ↓ 0
2024-04-06 magnet Чёрное солнце [S01] (2023) WEBRip 720p от ExKinoRay 15.75 GB ↑ 0 ↓ 0
2024-04-06 magnet Чёрное солнце [S01] (2023) WEBRip 1080p 26.89 GB ↑ 0 ↓ 3
2024-04-06 magnet Чёрное солнце [S01] (2023) WEBRip 7.90 GB ↑ 1 ↓ 0
2024-04-06 magnet Чёрное солнце [01х01-12 из 12] (2023) WEBRip-AVC от Files-х 7.65 GB ↑ 0 ↓ 0
2024-04-05 magnet Чёрное солнце / Серии: 1-12 из 12 [2023, детектив, драма, WEBRip-AVC] от Aleksan55 7.66 GB ↑ 1 ↓ 0
2024-03-29 magnet Чёрное солнце [01х01-10 из 12] (2023) WEBRip-AVC от Files-х 6.37 GB ↑ 0 ↓ 0

Комментарии

josef47
Херомант лучше чем нюхатель, однозначно!

RazR
Смотрится с интересом, нет занудства и бестолковых диалогов. Чурсин великолепен.


Зарегистрируйтесь чтобы добавить комментарий
Торрент клиент
byTorrent - программа для загрузки торрент-файлов.

Скачать byTorrent.exe (1,5 МБ)

Скачать byTorrent.zip (0,6 МБ)

Поддержи torrent.by
российских рублей
(300 российских рублей это 4$)

Обратная связь rss

End game ©