↑↓torrent.by
Поиск
Логин:  Регистрация
Пароль:

Чёрное солнце [01-10 из 12] (2023) WEBRip

download Скачать торрент-файл   magnet Магнитная ссылка Размер: 6.58 GB Раздают: 0 Качают: 1 Добавлен: 2024-03-29 05:00
Пиры будут получены из сети DHT
Последний сидер был замечен 2024-04-06 16:29
Информация о фильме Название: Чёрное солнце Год выхода: 2023 Жанр: Детектив, драма Режиссёр: Анна Носатова В ролях: Юрий Чурсин, Максим Стоянов, Виктория Корлякова, Петр Кислов, Григорий Зельцер, Петар Зекавица, Пётр Романов, Александра Большакова, Полина Ватага, Петр Нечипоренко, Сергей Козик, Валерий Скорокосов, Ксения Плюснина, Дарья Румянцева, Дмитрий Сотниченко, Артур Казберов, Светлана Нестерова, Елизавета Потапова, Александр Силаев, Татьяна Косач-Брындина, Роман Каун, Дарья Сергеева, Владимир Якимов, Ника Борисова, Михаил Апальков, Михаил Коновалов, Вероника Ряполова, Вадим Пироженко О фильме: Оперуполномоченный капитан Евгений Чагин отправляется в лес под Выборгом, где, по заявлению молдаванки Габи, обратившейся в полицию, пропала ее сестра. На месте поисков Чагин обнаруживает остатки костра, и на следующий день узнает, что Габи тоже исчезла. Вместе с тем в городе появляется новый следователь — Игорь Жук, он прибывает на место убийства, — одноклассник Чагина убил нескольких бандитов. Чагин пытался помочь однокласснику сокрыть улики. Между Жуком и Чагиным зарождается конфликт, выливающийся в увольнение Чагина из полиции. Вскоре в том же лесу, близ места, куда ездили Чагин и Габи, находят труп без головы и кистей рук. Жуку и Чагину приходится объединиться, чтобы поймать убийцу. Они выясняют, что ранее полиция находила такие же тела, но не связывала дела друг с другом. Становится очевидно, что поймать убийцу не так-то просто, и действует, он, похоже, не один. Страна: Россия Студия: Кинокомпания «Драйв», Телекомпания НТВ Продолжительность: 10 x ~ 00:50:00 Язык: Русский Премьера в Росcии: 01 марта 2024 года Цифровой релиз: 01 марта 2024 года Примечание: Без рекламы Возраст: 18+ Файл Формат: AVI Качество: WEBRip Видео: XviD, ~ 1650 Кбит/с, 720x400 Звук: AC3, 2 ch, 192 Кбит/с Субтитры: Отсутствуют Семпл
[+] Скриншоты
[+] MIОбщее Полное имя : C:UsersAdminDesktopChyornoe.solnce.S01.2023.WEB-DLipChyornoe.solnce.S01.E01.2023.WEB-DLRip.avi Формат : AVI Формат/Информация : Audio Video Interleave Размер файла : 676 Мбайт Продолжительность : 51 м. 3 с. Общий поток : 1 852 Кбит/сек Программа кодирования : Lavf59.16.100 Видео Идентификатор : 0 Формат : MPEG-4 Visual Профиль формата : Advanced Simple@L5 Настройки формата : BVOP1 / Custom Matrix Параметр BVOP формата : 1 Параметр QPel формата : Нет Параметр GMC формата : Без точки перехода Параметр матрицы формата : Выборочная Идентификатор кодека : XVID Идентификатор кодека/Подсказка : XviD Продолжительность : 51 м. 2 с. Битрейт : 1 649 Кбит/сек Ширина : 720 пикселей Высота : 400 пикселей Соотношение сторон : 16:9 Частота кадров : 25,000 кадров/сек Цветовое пространство : YUV Субдискретизация насыщенности : 4:2:0 Битовая глубина : 8 бит Тип развёртки : Прогрессивная Метод сжатия : С потерями Бит/(Пиксели*Кадры) : 0.229 Размер потока : 602 Мбайт (89%) Библиотека кодирования : XviD 69 Аудио Идентификатор : 1 Формат : AC-3 Формат/Информация : Audio Coding 3 Коммерческое название : Dolby Digital Идентификатор кодека : 2000 Продолжительность : 51 м. 3 с. Вид битрейта : Постоянный Битрейт : 192 Кбит/сек Каналы : 2 канала Channel layout : L R Частота : 48,0 КГц Частота кадров : 31,250 кадров/сек (1536 SPF) Битовая глубина : 16 бит Метод сжатия : С потерями Размер потока : 70,1 Мбайт (10%) Выравнивание : Соединение по промежуткам Продолжительность промежутка : 32 мс. (0,80 видеокадр) Service kind : Complete Main

Всего файлов в раздаче: 10 
Chyornoe.solnce.S01.E01.2023.WEB-DLRip.avi676.18 MB
Chyornoe.solnce.S01.E02.2023.WEB-DLRip.avi628.03 MB
Chyornoe.solnce.S01.E03.2023.WEB-DLRip.avi685.34 MB
Chyornoe.solnce.S01.E04.2023.WEB-DLRip.avi672.19 MB
Chyornoe.solnce.S01.E05.2023.WEB-DLRip.avi703.75 MB
Chyornoe.solnce.S01.E06.2023.WEB-DLRip.avi684.98 MB
Chyornoe.solnce.S01.E07.2023.WEB-DLRip.avi667.21 MB
Chyornoe.solnce.S01.E08.2023.WEB-DLRip.avi648.32 MB
Chyornoe.solnce.S01.E09.2023.WEB-DLRip.avi703.76 MB
Chyornoe.solnce.S01.E10.2023.WEB-DLRip.avi670.49 MB

Похожие раздачи по запросу - Чёрное
Сегодня magnet Чёрное солнце [S01] (2023) WEBRip от Generalfilm | КПК 2.27 GB ↑ 0 ↓ 0
2024-04-06 magnet Чёрное солнце [S01] (2023) WEBRip 720p от ExKinoRay 15.75 GB ↑ 0 ↓ 0
2024-04-06 magnet Чёрное солнце [S01] (2023) WEBRip 1080p 26.89 GB ↑ 0 ↓ 1
2024-04-06 magnet Чёрное солнце [S01] (2023) WEBRip 7.90 GB ↑ 1 ↓ 0
2024-04-06 magnet Чёрное солнце [01х01-12 из 12] (2023) WEBRip-AVC от Files-х 7.65 GB ↑ 0 ↓ 0
2024-04-05 magnet Чёрное солнце / Серии: 1-12 из 12 [2023, детектив, драма, WEBRip-AVC] от Aleksan55 7.66 GB ↑ 1 ↓ 0
2024-03-29 magnet Чёрное солнце [01х01-10 из 12] (2023) WEBRip-AVC от Files-х 6.37 GB ↑ 0 ↓ 0

Комментарии

qwe
Как же задрали эти опера, расчленёнки и т д. Почему сплошной негатив льётся с экранов, нам и в жизни этого хватает, снимайте что-нибудь умное, хорошее, полезное.


Зарегистрируйтесь чтобы добавить комментарий
Торрент клиент
byTorrent - программа для загрузки торрент-файлов.

Скачать byTorrent.exe (1,5 МБ)

Скачать byTorrent.zip (0,6 МБ)

Поддержи torrent.by
российских рублей
(300 российских рублей это 4$)

Обратная связь rss

End game ©