↑↓torrent.by
Поиск
Логин:  Регистрация
Пароль:

Разрушитель / Demolition Man (1993) BDRip 1080p от KORSAR | D, P, P2, A

download Скачать торрент-файл   magnet Магнитная ссылка Размер: 10.88 GB Добавлен: 2024-03-29 05:00
Пиры будут получены из сети DHT
Последний сидер был замечен 2024-04-11 18:03
Разрушитель Demolition Man «Самый опасный полицейский 21-го века. Самый жестокий преступник 21-го века» Страна: США Жанр: фантастика, боевик, триллер, криминал Год выпуска: 1993 Продолжительность: 01:55:02 Перевод: Профессиональный (полное дублирование), Профессиональный (многоголосый, закадровый), Профессиональный (двухголосый, закадровый), Авторский Субтитры: русские, английские. Режиссер: Марко Брамбилла / Marco Brambilla В ролях: Сильвестр Сталлоне (John Spartan), Уэсли Снайпс (Simon Phoenix), Сандра Буллок (Lenina Huxley), Найджел Хоторн (Dr. Raymond Cocteau), Бенджамин Брэтт (Alfredo Garcia), Боб Гантон (Chief George Earle), Гленн Шэдикс (Associate Bob), Дэнис Лири (Edgar Friendly), Гранд Л. Буш (Zachary Lamb - Young), Пэт Скиппер (Helicopter Pilot), Стив Кэхэн (Captain Healy), Пол Болен (T.F.R. Officer) Описание: В 2032 году в крио-тюрьме после 35-летней заморозки пробуждается один из самых опасных преступников Саймон Феникс и решает взять приступом спокойный, свободный от всякого насилия Сан-Анджелес. MPAA: R - Лицам до 17 лет обязательно присутствие взрослого Качество: BDRip 1080p Контейнер: MKV Видео: AVC, 1920x800 (2.40:1), 9600 kbps, 23,976 fps, 0,261 bpp Аудио №01: русский / AC3 / 5.1 / 48 kHz / 640 kbps / Дубляж ( Blu-ray CEE ) Аудио №02: русский / AC3 / 2.0 / 48 kHz / 192 kbps / Дубляж ( Варус-Видео ) Аудио №03: русский / AC3 / 2.0 / 48 kHz / 192 kbps / MVO ( РТР ) Аудио №04: русский / AC3 / 2.0 / 48 kHz / 192 kbps / MVO ( ОРТ ) Аудио №05: русский / AC3 / 2.0 / 48 kHz / 224 kbps / DVO ( TV1000 ) Аудио №06: русский / AC3 / 2.0 / 48 kHz / 192 kbps / DVO ( LNT ) Аудио №07: русский / AC3 / 5.1 / 48 kHz / 640 kbps / AVO ( Гаврилов ) Аудио №08: русский / AC3 / 2.0 / 44 kHz / 192 kbps / AVO ( Дольский ) Аудио №09: русский / AC3 / 2.0 / 48 kHz / 192 kbps / AVO ( Володарский ) Аудио №10: русский / AC3 / 5.1 / 48 kHz / 640 kbps / AVO ( Чадов ) Аудио №11: английский / AC3 / 5.1 / 48 kHz / 640 kbps Навигация по главам: есть
[+] Media Info Формат : Matroska Версия формата : Version 2 Размер файла : 10,9 Гбайт Продолжительность : 1 ч. 55 м. Общий поток : 13,5 Мбит/сек Название фильма : = Разрушитель / Demolition Man (1993) BDRip 1080p - KORSAR = Дата кодирования : UTC 2017-11-11 06:16:19 Программа кодирования : mkvmerge v5.8.0 ('No Sleep / Pillow') built on Sep 2 2012 15:37:04 Библиотека кодирования : libebml v1.2.3 + libmatroska v1.3.0 Attachment : Yes Видео Идентификатор : 1 Формат : AVC Формат/Информация : Advanced Video Codec Профиль формата : High@L4.1 Параметр CABAC формата : Да Параметр ReFrames формата : 5 кадров Идентификатор кодека : V_MPEG4/ISO/AVC Продолжительность : 1 ч. 55 м. Битрейт : 9600 Кбит/сек Ширина : 1920 пикселей Высота : 800 пикселей Соотношение сторон : 2,40:1 Режим частоты кадров : Постоянный Частота кадров : 23,976 кадра/сек Цветовое пространство : YUV Субдискретизация насыщенности : 4:2:0 Битовая глубина : 8 бит Тип развёртки : Прогрессивная Бит/(Пиксели*Кадры) : 0.261 Размер потока : 7,50 Гбайт (69%) Заголовок : Разрушитель / Demolition Man (1993) BDRip 1080p - KORSAR Библиотека кодирования : x264 core 148 r2744kMod b97ae06 Настройки программы : cabac=1 / ref=5 / deblock=1:-3:-3 / analyse=0x3:0x113 / me=umh / subme=11 / psy=1 / fade_compensate=0.00 / psy_rd=1.00:0.05 / mixed_ref=1 / me_range=32 / chroma_me=1 / trellis=2 / 8x8dct=1 / cqm=0 / deadzone=21,11 / fast_pskip=0 / chroma_qp_offset=-3 / threads=12 / lookahead_threads=3 / sliced_threads=0 / nr=0 / decimate=0 / interlaced=0 / bluray_compat=0 / constrained_intra=0 / bframes=12 / b_pyramid=2 / b_adapt=2 / b_bias=0 / direct=3 / weightb=1 / open_gop=0 / weightp=2 / keyint=240 / keyint_min=23 / scenecut=40 / intra_refresh=0 / rc_lookahead=60 / rc=2pass / mbtree=0 / bitrate=9600 / ratetol=1.0 / qcomp=0.60 / qpmin=0 / qpmax=39 / qpstep=4 / cplxblur=20.0 / qblur=0.5 / vbv_maxrate=50000 / vbv_bufsize=62500 / nal_hrd=none / filler=0 / ip_ratio=1.40 / pb_ratio=1.30 / aq=1:0.70 Язык : English Default : Да Forced : Нет Основные цвета : BT.709 Характеристики трансфера : BT.709 Коэффициенты матрицы : BT.709 Аудио #1 Идентификатор : 2 Формат : AC-3 Формат/Информация : Audio Coding 3 Расширение режима : CM (complete main) Параметр Endianness формата : Big Идентификатор кодека : A_AC3 Продолжительность : 1 ч. 55 м. Вид битрейта : Постоянный Битрейт : 640 Кбит/сек Каналы : 6 каналов Расположение каналов : Front: L C R, Side: L R, LFE Частота : 48,0 КГц Битовая глубина : 16 бит Метод сжатия : С потерями Размер потока : 527 Мбайт (5%) Заголовок : Дубляж ( Blu-ray CEE ) Язык : Russian Default : Да Forced : Нет Аудио #2 Идентификатор : 3 Формат : AC-3 Формат/Информация : Audio Coding 3 Расширение режима : CM (complete main) Параметр Endianness формата : Big Идентификатор кодека : A_AC3 Продолжительность : 1 ч. 55 м. Вид битрейта : Постоянный Битрейт : 192 Кбит/сек Каналы : 2 канала Расположение каналов : Front: L R Частота : 48,0 КГц Битовая глубина : 16 бит Метод сжатия : С потерями Размер потока : 158 Мбайт (1%) Заголовок : Дубляж ( Варус-Видео ) Язык : Russian Default : Нет Forced : Нет Аудио #3 Идентификатор : 4 Формат : AC-3 Формат/Информация : Audio Coding 3 Расширение режима : CM (complete main) Параметр Endianness формата : Big Идентификатор кодека : A_AC3 Продолжительность : 1 ч. 55 м. Вид битрейта : Постоянный Битрейт : 192 Кбит/сек Каналы : 2 канала Расположение каналов : Front: L R Частота : 48,0 КГц Битовая глубина : 16 бит Метод сжатия : С потерями Размер потока : 158 Мбайт (1%) Заголовок : MVO ( РТР ) Язык : Russian Default : Нет Forced : Нет Аудио #4 Идентификатор : 5 Формат : AC-3 Формат/Информация : Audio Coding 3 Расширение режима : CM (complete main) Параметр Endianness формата : Big Идентификатор кодека : A_AC3 Продолжительность : 1 ч. 55 м. Вид битрейта : Постоянный Битрейт : 192 Кбит/сек Каналы : 2 канала Расположение каналов : Front: L R Частота : 48,0 КГц Битовая глубина : 16 бит Метод сжатия : С потерями Размер потока : 158 Мбайт (1%) Заголовок : MVO ( ОРТ ) Язык : Russian Default : Нет Forced : Нет Аудио #5 Идентификатор : 6 Формат : AC-3 Формат/Информация : Audio Coding 3 Расширение режима : CM (complete main) Параметр Endianness формата : Big Идентификатор кодека : A_AC3 Продолжительность : 1 ч. 55 м. Вид битрейта : Постоянный Битрейт : 224 Кбит/сек Каналы : 2 канала Расположение каналов : Front: L R Частота : 48,0 КГц Битовая глубина : 16 бит Метод сжатия : С потерями Размер потока : 184 Мбайт (2%) Заголовок : DVO ( TV1000 ) Язык : Russian Default : Нет Forced : Нет Аудио #6 Идентификатор : 7 Формат : AC-3 Формат/Информация : Audio Coding 3 Расширение режима : CM (complete main) Параметр Endianness формата : Big Идентификатор кодека : A_AC3 Продолжительность : 1 ч. 55 м. Вид битрейта : Постоянный Битрейт : 192 Кбит/сек Каналы : 2 канала Расположение каналов : Front: L R Частота : 48,0 КГц Битовая глубина : 16 бит Метод сжатия : С потерями Размер потока : 158 Мбайт (1%) Заголовок : DVO ( LNT ) Язык : Russian Default : Нет Forced : Нет Аудио #7 Идентификатор : 8 Формат : AC-3 Формат/Информация : Audio Coding 3 Расширение режима : CM (complete main) Параметр Endianness формата : Big Идентификатор кодека : A_AC3 Продолжительность : 1 ч. 55 м. Вид битрейта : Постоянный Битрейт : 640 Кбит/сек Каналы : 6 каналов Расположение каналов : Front: L C R, Side: L R, LFE Частота : 48,0 КГц Битовая глубина : 16 бит Метод сжатия : С потерями Размер потока : 527 Мбайт (5%) Заголовок : AVO ( Гаврилов ) Язык : Russian Default : Нет Forced : Нет Аудио #8 Идентификатор : 9 Формат : AC-3 Формат/Информация : Audio Coding 3 Расширение режима : CM (complete main) Параметр Endianness формата : Big Идентификатор кодека : A_AC3 Продолжительность : 1 ч. 55 м. Вид битрейта : Постоянный Битрейт : 192 Кбит/сек Каналы : 2 канала Расположение каналов : Front: L R Частота : 44,1 КГц Битовая глубина : 16 бит Метод сжатия : С потерями Размер потока : 158 Мбайт (1%) Заголовок : AVO ( Дольский ) Язык : Russian Default : Нет Forced : Нет Аудио #9 Идентификатор : 10 Формат : AC-3 Формат/Информация : Audio Coding 3 Расширение режима : CM (complete main) Параметр Endianness формата : Big Идентификатор кодека : A_AC3 Продолжительность : 1 ч. 55 м. Вид битрейта : Постоянный Битрейт : 192 Кбит/сек Каналы : 2 канала Расположение каналов : Front: L R Частота : 48,0 КГц Битовая глубина : 16 бит Метод сжатия : С потерями Размер потока : 158 Мбайт (1%) Заголовок : AVO ( Володарский ) Язык : Russian Default : Нет Forced : Нет Аудио #10 Идентификатор : 11 Формат : AC-3 Формат/Информация : Audio Coding 3 Расширение режима : CM (complete main) Параметр Endianness формата : Big Идентификатор кодека : A_AC3 Продолжительность : 1 ч. 55 м. Вид битрейта : Постоянный Битрейт : 640 Кбит/сек Каналы : 6 каналов Расположение каналов : Front: L C R, Side: L R, LFE Частота : 48,0 КГц Битовая глубина : 16 бит Метод сжатия : С потерями Размер потока : 527 Мбайт (5%) Заголовок : AVO ( Чадов ) Язык : Russian Default : Нет Forced : Нет Аудио #11 Идентификатор : 12 Формат : AC-3 Формат/Информация : Audio Coding 3 Расширение режима : CM (complete main) Параметр Endianness формата : Big Идентификатор кодека : A_AC3 Продолжительность : 1 ч. 55 м. Вид битрейта : Постоянный Битрейт : 640 Кбит/сек Каналы : 6 каналов Расположение каналов : Front: L C R, Side: L R, LFE Частота : 48,0 КГц Битовая глубина : 16 бит Метод сжатия : С потерями Размер потока : 527 Мбайт (5%) Язык : English Default : Нет Forced : Нет Текст #1 Идентификатор : 13 Формат : UTF-8 Идентификатор кодека : S_TEXT/UTF8 Идентификатор кодека/Информация : UTF-8 Plain Text Заголовок : Forced Язык : Russian Default : Да Forced : Да Текст #2 Идентификатор : 14 Формат : UTF-8 Идентификатор кодека : S_TEXT/UTF8 Идентификатор кодека/Информация : UTF-8 Plain Text Язык : Russian Default : Нет Forced : Нет Текст #3 Идентификатор : 15 Формат : UTF-8 Идентификатор кодека : S_TEXT/UTF8 Идентификатор кодека/Информация : UTF-8 Plain Text Язык : English Default : Нет Forced : Нет Текст #4 Идентификатор : 16 Формат : UTF-8 Идентификатор кодека : S_TEXT/UTF8 Идентификатор кодека/Информация : UTF-8 Plain Text Заголовок : SDH Язык : English Default : Нет Forced : Нет Меню 00:00:00.000 : en:Los Angeles 1996: Send in the Maniac 00:02:50.211 : en:A Hot Time 00:07:10.847 : en:A Cold Sentence 00:11:30.523 : en:2032: Lenina Lacks Stimulus 00:16:46.213 : en:One Parole Hearing = 4 Mdk's 00:22:59.878 : en:No Respect for the Law 00:28:39.467 : en:The Governor's Problem 00:31:03.987 : en:Legend of the Demolition Man 00:32:43.878 : en:Wake-Up Call 00:37:45.554 : en:"So Much for the Sea Shells" 00:41:26.775 : en:Violence in the Hall 00:47:32.015 : en:Blast From the Past 00:51:13.320 : en:"Don't You Have Someone to Kill?" 00:54:35.313 : en:The Chief's Plan; What All Restaurants Are 00:57:18.017 : en:Dining with the Governor 01:00:17.196 : en:Attack of the Scraps 01:03:16.542 : en:After-Dinner Chats 01:07:41.932 : en:21St Century Sex 01:14:57.326 : en:A Gift for Lenina; Phoenix's Programming 01:17:39.446 : en:Confronting Cocteau 01:19:54.331 : en:Wasteland 01:24:09.252 : en:Friendly's Manifesto 01:27:03.885 : en:"Let's Bring Back the Good Old Days" 01:28:04.904 : en:Unwelcome Guests 01:30:25.962 : en:Pedal to the Metal 01:34:50.309 : en:Unexpected Allies 01:37:10.825 : en:End of the Cocteau Plan 01:41:16.904 : en:Cryoprison Chaos 01:45:52.179 : en:"This Is the Best Day of My Life" 01:48:42.641 : en:"I Think I'm Gonna Like the Future"
[+] Скриншоты

Всего файлов в раздаче: 1 
Razrushitel.BDRip.1080p.KORSAR.mkv10.88 GB

Комментарии

googel83
Мега крутой фильм начала 90-х!!! Смотрю всегда с удовольствием!!!


Зарегистрируйтесь чтобы добавить комментарий
Торрент клиент
byTorrent - программа для загрузки торрент-файлов.

Скачать byTorrent.exe (1,5 МБ)

Скачать byTorrent.zip (0,6 МБ)

Поддержи torrent.by
российских рублей
(300 российских рублей это 4$)

Обратная связь rss

End game ©