↑↓torrent.by
Поиск
Логин:  Регистрация
Пароль:

Бюро магических услуг / The Portable Door (2023) WEB-DLRip 720p от DoMiNo & селезень | D, P

download Скачать торрент-файл   magnet Магнитная ссылка Размер: 2.49 GB Добавлен: 2024-03-29 05:00
Пиры будут получены из сети DHT
Последний сидер был замечен 2024-04-13 19:20
Информация о фильме Название: Бюро магических услуг Оригинальное название: The Portable Door Год выхода: 2023 Жанр: Фэнтези Режиссер: Джеффри Уокер В ролях: Кристоф Вальц, Сэм Нил, Рэйчел Хаус, Миранда Отто, Патрик Гибсон, Софи Уайлд, Джессика Де Гау, Дэймон Херриман, Крис Пэнг, Диана Лин, Кристофер Соммерс, Джейсон Уайлдер О фильме: Самые обычные клерки работают в весьма необычной фирме. Здесь распутывают самые странные происшествия и занимаются поисками магических артефактов. Непримечательная парочка стажеров — исполнителей среднего звена, даже не подозревает, во что ввязалась, и думает лишь о том, как бы разобраться с рутиной до ужина, желательно не изменив ход истории и не повергнув Вселенную в хаос временных парадоксов. Иначе повышения им точно не видать. Страна: Австралия Студия: Jim Henson Company, The, MEP Capital Продолжительность: 01:55:46 Перевод 1: Профессиональный (полное дублирование) | Велес Перевод 2: Профессиональный многоголосый | Jaskier Субтитры: Английские Файл Формат: Matroska Качество: WEB-DLRip 720p | AMZN Видео: 1280x536 at 23.976 fps, x264@L4.1, ~1928 kbps Аудио 1: AC3, 6 ch, ~384 kbps - | Русский | | Велес Аудио 2: AC3, 6 ch, ~384 kbps - | Русский | | Jaskier Аудио 2: AC3, 6 ch, ~384 kbps - | Английский | Формат субтитров: softsub (SRT) ***Рип от: -=DoMiNo=-
[+] M/Ix264 : frame I:1386 Avg QP:15.47 size: 68920 x264 : frame P:40873 Avg QP:17.13 size: 20396 x264 : frame B:124301 Avg QP:19.08 size: 5992 General Unique ID : 214373728877087716604165354069173803793 (0xA146E0DD14D218541090AE7071B51B11) Complete name : H:The.Portable.Door.2023.AMZN.WEB-DLRip.720p.x264.seleZen.mkv Format : Matroska Format version : Version 4 File size : 2.49 GiB Duration : 1 h 55 min Overall bit rate : 3 080 kb/s Frame rate : 23.976 FPS Movie name : The.Portable.Door.2023.AMZN.WEB-DLRip.720p.x264.seleZen Encoded date : 2023-05-12 12:55:06 UTC Writing application : mkvmerge v76.0 ('Celebration') 64-bit Writing library : libebml v1.4.4 + libmatroska v1.7.1 Cover : Yes Attachments : cover.jpg / small_cover.jpg Video ID : 1 Format : AVC Format/Info : Advanced Video Codec Format profile : High@L4.1 Format settings : CABAC / 9 Ref Frames Format settings, CABAC : Yes Format settings, Reference : 9 frames Codec ID : V_MPEG4/ISO/AVC Duration : 1 h 55 min Bit rate : 1 928 kb/s Width : 1 280 pixels Height : 536 pixels Display aspect ratio : 2.40:1 Frame rate mode : Constant Frame rate : 23.976 (24000/1001) FPS Color space : YUV Chroma subsampling : 4:2:0 Bit depth : 8 bits Scan type : Progressive Bits/(Pixel*Frame) : 0.117 Stream size : 1.56 GiB (63%) Title : -=DoMiNo=- Writing library : x264 core 164 r3107+55M 1028c06 t_mod_New | by -=DoMiNo=- | X86_64] Encoding settings : cabac=1 / ref=9 / deblock=1:-2:-1 / analyse=0x3:0x133 / me=umh / subme=10 / psy=1 / fade_compensate=0.00 / psy_rd=1.02:0.03 / mixed_ref=1 / me_range=32 / chroma_me=1 / trellis=2 / 8x8dct=1 / cqm=0 / deadzone=21,11 / fast_pskip=0 / chroma_qp_offset=-3 / threads=17 / lookahead_threads=4 / sliced_threads=0 / nr=0 / decimate=1 / interlaced=0 / bluray_compat=0 / constrained_intra=0 / fgo=0 / bframes=12 / b_pyramid=2 / b_adapt=2 / b_bias=0 / direct=3 / weightb=1 / open_gop=0 / weightp=2 / keyint=240 / keyint_min=23 / scenecut=40 / intra_refresh=0 / rc_lookahead=60 / rc=crf / mbtree=0 / crf=20.0000 / qcomp=0.60 / qpmin=0:0:0 / qpmax=69:69:69 / qpstep=4 / vbv_maxrate=50000 / vbv_bufsize=62500 / crf_max=0.0 / nal_hrd=none / filler=0 / ip_ratio=1.33 / pb_ratio=1.25 / aq=3:0.90 / aq-sensitivity=10.00 / aq-factor=1.00:1.00:1.00 / aq2=0 / aq3=0 Language : English Default : Yes Forced : No Audio #1 ID : 2 Format : AC-3 Format/Info : Audio Coding 3 Commercial name : Dolby Digital Codec ID : A_AC3 Duration : 1 h 55 min Bit rate mode : Constant Bit rate : 384 kb/s Channel(s) : 6 channels Channel layout : L R C LFE Ls Rs Sampling rate : 48.0 kHz Frame rate : 31.250 FPS (1536 SPF) Compression mode : Lossy Stream size : 318 MiB (12%) Title : Dub Language : Russian Service kind : Complete Main Default : Yes Forced : Yes Audio #2 ID : 3 Format : AC-3 Format/Info : Audio Coding 3 Commercial name : Dolby Digital Codec ID : A_AC3 Duration : 1 h 55 min Bit rate mode : Constant Bit rate : 384 kb/s Channel(s) : 6 channels Channel layout : L R C LFE Ls Rs Sampling rate : 48.0 kHz Frame rate : 31.250 FPS (1536 SPF) Compression mode : Lossy Stream size : 318 MiB (12%) Title : MVO Language : Russian Service kind : Complete Main Default : No Forced : No Audio #3 ID : 4 Format : AC-3 Format/Info : Audio Coding 3 Commercial name : Dolby Digital Codec ID : A_AC3 Duration : 1 h 55 min Bit rate mode : Constant Bit rate : 384 kb/s Channel(s) : 6 channels Channel layout : L R C LFE Ls Rs Sampling rate : 48.0 kHz Frame rate : 31.250 FPS (1536 SPF) Compression mode : Lossy Stream size : 318 MiB (12%) Title : Eng Language : English Service kind : Complete Main Default : No Forced : No Text #1 ID : 5 Format : UTF-8 Codec ID : S_TEXT/UTF8 Codec ID/Info : UTF-8 Plain Text Duration : 1 h 53 min Bit rate : 52 b/s Frame rate : 0.226 FPS Count of elements : 1542 Stream size : 43.3 KiB (0%) Title : Full Language : English (GB) Default : No Forced : No Text #2 ID : 6 Format : UTF-8 Codec ID : S_TEXT/UTF8 Codec ID/Info : UTF-8 Plain Text Duration : 1 h 54 min Bit rate : 62 b/s Frame rate : 0.274 FPS Count of elements : 1875 Stream size : 52.0 KiB (0%) Title : SDH Language : English (GB) Default : No Forced : No Menu 00:00:00.000 : en:Глава 01 00:11:40.000 : en:Глава 02 00:23:20.000 : en:Глава 03 00:35:00.000 : en:Глава 04 00:46:40.000 : en:Глава 05 00:58:20.000 : en:Глава 06 01:10:00.000 : en:Глава 07 01:21:40.000 : en:Глава 08 01:33:20.000 : en:Глава 09 01:45:00.000 : en:Глава 10
Релиз: Присоединяйся к: Кликай на баннеры.

Всего файлов в раздаче: 1 
The.Portable.Door.2023.AMZN.WEB-DLRip.720p.x264.seleZen.mkv2.49 GB

Похожие раздачи по запросу - Бюро
2024-03-29 magnet Бюро магических услуг / The Portable Door (2023) WEB-DLRip от toxics & селезень | D 1.46 GB ↑ 0 ↓ 0
2023-04-12 magnet Бюро магических услуг / The Portable Door (2023) WEB-DLRip-AVC от ExKinoRay | P | Jaskier 745.63 MB ↑ 0 ↓ 0
2023-04-09 magnet Бюро магических услуг / The Portable Door (2023) WEB-DLRip от New-Team | Jaskier 1.46 GB ↑ 0 ↓ 0

Комментарии

romik
Скучны, затянутый…. Зря потрачено время.


Зарегистрируйтесь чтобы добавить комментарий
Торрент клиент
byTorrent - программа для загрузки торрент-файлов.

Скачать byTorrent.exe (1,5 МБ)

Скачать byTorrent.zip (0,6 МБ)

Поддержи torrent.by
российских рублей
(300 российских рублей это 4$)

Обратная связь rss

End game ©