↑↓torrent.by
Поиск
Логин:  Регистрация
Пароль:

Бременские музыканты (2023) WEB-DLRip от ExKinoRay

download Скачать торрент-файл   magnet Магнитная ссылка Размер: 749.15 MB Добавлен: 2024-03-29 05:00
Пиры будут получены из сети DHT
Последний сидер был замечен сегодня в 14:45
Информация о фильме Название: Бременские музыканты Год выхода: 2023 Премьера в России: 1 января 2024 Жанр: приключения, семейный, фэнтези, комедия Режиссер: Алексей Нужный В ролях: Тихон Жизневский, Валентина Ляпина, Роман Курцын, Аскар Нигамедзянов, Ирина Горбачёва, Дмитрий Дюжев, Сергей Бурунов, Мария Аронова, Константин Хабенский, Юлия Пересильд, Мирон Проворов, Оксана Суркова, Павел Стонт, Мария Жидкова, Богдан Кияшко, Тереза Диуро, Геннадий Искорцев, Михаил Селиванов, Стефан Петров, Николай Самсонов, Анна Крамер, Антон Коновалов, Санта Нужная, Дея Сиберт, Александра Попова, Степан Самойленко, Никита Никитин, Сергей Федоров, Игорь Царегородцев, Артур Иванов, Елизавета Столбова, Илья Варанкин, Николай Федькин, Николай Евстафьев, Сергей Бурбон, Гарик Айвазов, Михаил Коновалов, Михаил Орлов, Алексей Проценко О фильме: Трубадур и его друзья-самозванцы — Пес, Кошка, Осел и самовлюбленный Петух — объединились, чтобы совершить подвиг. Прежде всего они должны рассмешить дочь Короля, но встреча с Принцессой грозит опасным приключением. Против Трубадура и его друзей — коварные враги, интриги и ловушки, но за любовь надо сражаться. А тут еще Принцесса сбежала из дворца. В одном клубке — преступные схемы Разбойников, интриги Сыщика, капризы и тайны королевской семейки, но веселые музыканты с неутомимым Трубадуром заставят всех плясать под свою дудку. Страна: Россия Студия: Телеканал «Россия 1», Союзмультфильм, Студия Тритэ Продолжительность: 01:55:40 Перевод: Не требуется Файл Кодек: XviD Качество: WEB-DLRip Видео: 688x288 (2.39:1), 24 fps, XviD build 67 ~765 kbps avg, 0.16 bit/pixel Звук: 48 kHz, MP3, 2 ch, 128 kbps avg Субтитры: Отсутствуют
[+] MediaInfoGeneral Complete name : D:Бременские музыканты.WEB-DLRip.by.ExKinoRay & Shkiper.avi Format : AVI Format/Info : Audio Video Interleave Format settings : BitmapInfoHeader / WaveFormatEx File size : 749 MiB Duration : 1 h 55 min Overall bit rate : 906 kb/s Frame rate : 24.000 FPS Movie name : Bremenskie.muzykanty.WEB-DLRip.by.ExKinoRay & Shkiper Writing application : Lavf58.29.100 Video ID : 0 Format : MPEG-4 Visual Format profile : Advanced Simple@L5 Format settings : BVOP1 / Custom Matrix Format settings, BVOP : 1 Format settings, QPel : No Format settings, GMC : No warppoints Format settings, Matrix : Custom Codec ID : XVID Codec ID/Hint : XviD Duration : 1 h 55 min Bit rate : 765 kb/s Width : 688 pixels Height : 288 pixels Display aspect ratio : 2.40:1 Frame rate : 24.000 FPS Color space : YUV Chroma subsampling : 4:2:0 Bit depth : 8 bits Scan type : Progressive Compression mode : Lossy Bits/(Pixel*Frame) : 0.161 Stream size : 633 MiB (84%) Writing library : XviD 67 Audio ID : 1 Format : MPEG Audio Format version : Version 1 Format profile : Layer 3 Format settings : Joint stereo Codec ID : 55 Codec ID/Hint : MP3 Duration : 1 h 55 min Bit rate mode : Constant Bit rate : 128 kb/s Channel(s) : 2 channels Sampling rate : 48.0 kHz Compression mode : Lossy Stream size : 106 MiB (14%) Alignment : Aligned on interleaves Interleave, duration : 24 ms (0.58 video frame) Title : Writing library : LAME3.10
[+] Скриншоты
Релиз от: Рип изготовил:

Всего файлов в раздаче: 1 
Бременские музыканты.WEB-DLRip.by.ExKinoRay & Shkiper.avi749.15 MB

Похожие раздачи по запросу - Бременские
2024-03-31 magnet Бременские музыканты (2023) WEB-DLRip-AVC от DoMiNo 745.96 MB ↑ 0 ↓ 5
2024-03-28 magnet Бременские музыканты (2023) WEB-DLRip-AVC от ExKinoRay 2.04 GB ↑ 1 ↓ 4
2024-03-26 magnet Бременские музыканты (2023) WEB-DLRip от Generalfilm | КПК 439.98 MB ↑ 0 ↓ 0
2024-03-26 magnet Бременские музыканты [2023, приключения, семейный, фэнтези, комедия, WEB-DLRip-AVC] 1.46 GB ↑ 3 ↓ 0
2024-03-26 magnet Бременские музыканты (2023) WEB-DLRip-AVC от MegaPeer 1.83 GB ↑ 0 ↓ 0
2024-03-26 magnet Бременские музыканты (2023) WEB-DLRip-AVC от ExKinoRay 1.46 GB ↑ 1 ↓ 1
2024-03-26 magnet Бременские музыканты (2023) WEB-DLRip 720p от ExKinoRay 3.14 GB ↑ 1 ↓ 1

Комментарии


Зарегистрируйтесь чтобы добавить комментарий
Торрент клиент
byTorrent - программа для загрузки торрент-файлов.

Скачать byTorrent.exe (1,5 МБ)

Скачать byTorrent.zip (0,6 МБ)

Поддержи torrent.by
российских рублей
(300 российских рублей это 4$)

Обратная связь rss

End game ©