↑↓torrent.by
Поиск
Логин:  Регистрация
Пароль:

Сколько стоит любовь [S01] (2024) SATRip

download Скачать торрент-файл   magnet Магнитная ссылка Размер: 2.45 GB Добавлен: 2024-03-29 05:00
Пиры будут получены из сети DHT
Последний сидер был замечен 2024-03-31 18:36
Информация о фильме Название: Сколько стоит любовь Год выхода: 2024 Жанр: Мелодрама Режиссёр: Руслан Бальтцер В ролях: Евдокия Юшкевич, Олег Назаров, Василий Бриченко, Эрика Булатая, Артём Сухоруков, Владимир Царулков, Алина Астровская, Елена Бурханова-Калинина, Максим Кушников, Елена Литвинова, Татьяна Мошкова, Сергей Коломоец, Илья Арюпин, Ксения Кей О фильме: Домработница Катя стала невольной причиной разрыва отношений Марины и Максима прямо перед их свадьбой, из-за чего лишилась работы. Бизнесмен Олег Данилов предложил ей фиктивный брак, чтобы забрать сына у бывшей жены. Катя согласилась – гонорар за эту сделку поможет освободить брата от долгов. Став женой Данилова, Катя попала в круговорот событий: неожиданный приезд матери Олега, перед которой надо разыгрывать счастливых молодоженов; преследования Максима; «наезды» бандитов; попытки «бывшей» вернуть Олега… Преодолевая эти препятствия, сможет ли Катя ответить на вопрос – сколько стоит любовь? Страна: Россия Студия: Авва-Фильм Продолжительность: 4 х ~ 00:45:00 Язык: Русский Премьера в Росcии: 28 марта 2024 года Цифровой релиз: 28 марта 2024 года Примечание: Без рекламы Возраст: 16+ Файл Формат: AVI Качество: SATRip Видео: XviD, ~ 1650 Кбит/с, 720x400 Звук: MP3, 2 ch, 192 Кбит/с Субтитры: Отсутствуют Семпл
[+] Скриншоты
[+] MIОбщее Полное имя : C:UsersAdminDesktopSkoljko.Stoit.Lyubovj.2024.SATRip.vsobbolE01.Skoljko.Stoit.Lyubovj.avi Формат : AVI Формат/Информация : Audio Video Interleave Размер файла : 623 Мбайт Продолжительность : 47 м. 5 с. Общий поток : 1 851 Кбит/сек Программа кодирования : VirtualDubMod 1.5.10.3 | www.virtualdub-fr.org || (build 2550/release) Библиотека кодирования : VirtualDubMod build 2550/release Видео Идентификатор : 0 Формат : MPEG-4 Visual Профиль формата : Advanced Simple@L5 Настройки формата : BVOP1 / Custom Matrix Параметр BVOP формата : 1 Параметр QPel формата : Нет Параметр GMC формата : Без точки перехода Параметр матрицы формата : Выборочная Идентификатор кодека : XVID Идентификатор кодека/Подсказка : XviD Продолжительность : 47 м. 5 с. Битрейт : 1 649 Кбит/сек Ширина : 720 пикселей Высота : 400 пикселей Соотношение сторон : 16:9 Частота кадров : 25,000 кадров/сек Цветовое пространство : YUV Субдискретизация насыщенности : 4:2:0 Битовая глубина : 8 бит Тип развёртки : Прогрессивная Метод сжатия : С потерями Бит/(Пиксели*Кадры) : 0.229 Размер потока : 555 Мбайт (89%) Библиотека кодирования : XviD 73 Аудио Идентификатор : 1 Формат : MPEG Audio Версия формата : Version 1 Профиль формата : Layer 3 Идентификатор кодека : 55 Идентификатор кодека/Подсказка : MP3 Продолжительность : 47 м. 5 с. Вид битрейта : Постоянный Битрейт : 192 Кбит/сек Каналы : 2 канала Частота : 48,0 КГц Частота кадров : 41,667 кадра/сек (1152 SPF) Метод сжатия : С потерями Размер потока : 64,7 Мбайт (10%) Выравнивание : Соединение по промежуткам Продолжительность промежутка : 40 мс. (1,00 видеокадр) Время предзагрузки промежутка : 504 мс. Библиотека кодирования : LAME3.99r Настройки программы : -m s -V 4 -q 2 -lowpass 18.6 -b 192

Всего файлов в раздаче: 4 
E01.Skoljko.Stoit.Lyubovj.avi623.32 MB
E02.Skoljko.Stoit.Lyubovj.avi623.25 MB
E03.Skoljko.Stoit.Lyubovj.avi624.58 MB
E04.Skoljko.Stoit.Lyubovj.avi637.46 MB

Похожие раздачи по запросу - Сколько
2024-04-09 magnet Сколько стоит любовь [S01] (2024) WEB-DLRip-AVC от Files-x 2.40 GB ↑ 0 ↓ 0
2024-04-08 magnet Сколько стоит любовь [S01] (2024) WEB-DL 1080p от Files-x 5.14 GB ↑ 0 ↓ 0
2024-04-08 magnet Сколько стоит любовь [S01] (2024) WEB-DL 720p от Files-x 2.91 GB ↑ 0 ↓ 0
2024-04-08 magnet Сколько стоит любовь [S01] (2024) WEB-DLRip от Files-x 2.36 GB ↑ 0 ↓ 0
2024-04-07 magnet Сколько живет любовь [01-04 из 04] (2019) WEB-DL 1080p 4.92 GB ↑ 0 ↓ 0

Комментарии


Зарегистрируйтесь чтобы добавить комментарий
Торрент клиент
byTorrent - программа для загрузки торрент-файлов.

Скачать byTorrent.exe (1,5 МБ)

Скачать byTorrent.zip (0,6 МБ)

Поддержи torrent.by
российских рублей
(300 российских рублей это 4$)

Обратная связь rss

End game ©