↑↓torrent.by
Поиск
Логин:  Регистрация
Пароль:

Борис Годунов (1986) DVDRip от New-Team

download Скачать торрент-файл   magnet Магнитная ссылка Размер: 2.19 GB Добавлен: 2024-03-29 11:00
Пиры будут получены из сети DHT
Последний сидер был замечен 2024-04-14 22:22
Страна: СССР, Польша, Чехословакия, Германия (ФРГ) Производство: Allianz Filmproduktion, Filmové Studio Barrandov, Мосфильм, Zepoli Filmove Жанр: приключения Год выпуска: 1986 Продолжительность: 02:19:26 (01:10:35 + 01:08:51) Перевод: не требуется Оригинальная аудиодорожка: русский Cубтитры: нет Режиссер: Сергей Бондарчук В ролях: Сергей Бондарчук, Александр Соловьев, Анатолий Ромашин, Анатолий Васильев (II), Адриана Беджиньска, Евгений Самойлов, Роман Филиппов, Вячеслав Бутенко, Алена Бондарчук, Геннадий Митрофанов, Валерий Сторожик, Юрий Лазарев, Владимир Седов, Георгий Бурков, Вадим Александров, Ирина Скобцева, Кира Головко, Людмила Коршакова, Федор Бондарчук, Хенек Махалица, Ольгерд Лукашевич, Мариан Дженджель, Владимир Новиков, Виктор Яковлев, Олег Михайлов, Борис Химичев, Александр Титоренко, Норберт Кухинке, Виктор Смирнов, Юрий Шерстнев, Владимир Ферапонтов, Юра Матюхин, Валерий Шептекита, Галина Демина, Иван Лапиков, Николай Ерофеев, Александр Сайко, Владислав Комар... Подробнее об актерах Описание: По одноименной пьесе А. С. Пушкина. Действие происходит в конце XVI века, накануне «смутного времени». Главное действующее лицо этой исторической трагедии — русский царь Борис Годунов, взошедший на престол вслед за Иваном Грозным после трагических событий: смерти старшего сына Грозного Федора и гибели юного царевича Димитрия… Исходник: DVD9 R5 Тип релиза: DVDRip Контейнер: AVI Видео: 720x544 (4:3), 25,000 кадров/сек, XviD 73 ~ 1788 кбит/сек, 0.183 бит/пиксел Аудио: 48 кГц, Dolby Digital AC3 5.1, 448 кбит/сек Раздача от:
[+] MediaInfo Общее Полное имя : Борис Годунов.1986.DVDRip__by_AVP_Studio.avi Формат : AVI Формат/Информация : Audio Video Interleave Размер файла : 1,11 Гбайт Продолжительность : 1 ч. 10 м. Общий поток : 2245 Кбит/сек Программа кодирования : VirtualDubModRus 1.5.10.2 (build 2542/release) Библиотека кодирования : VirtualDubMod build 2542/release Видео Идентификатор : 0 Формат : MPEG-4 Visual Профиль формата : Advanced Simple@L5 Параметр BVOP формата : 1 Параметр QPel формата : Нет Параметр GMC формата : Без точки перехода Параметр матрицы формата : Выборочная Идентификатор кодека : XVID Идентификатор кодека/Подсказка : XviD Продолжительность : 1 ч. 10 м. Битрейт : 1788 Кбит/сек Ширина : 720 пикселей Высота : 544 пикселя Соотношение сторон : 4:3 Частота кадров : 25,000 кадров/сек Цветовое пространство : YUV Субдискретизация насыщенности : 4:2:0 Битовая глубина : 8 бит Тип развёртки : Прогрессивная Метод сжатия : С потерями Бит/(Пиксели*Кадры) : 0.183 Размер потока : 903 Мбайт (80%) Библиотека кодирования : XviD 73 Аудио Идентификатор : 1 Формат : AC-3 Формат/Информация : Audio Coding 3 Расширение режима : CM (complete main) Параметр Endianness формата : Big Идентификатор кодека : 2000 Продолжительность : 1 ч. 10 м. Вид битрейта : Постоянный Битрейт : 448 Кбит/сек Каналы : 6 каналов Расположение каналов : Front: L C R, Side: L R, LFE Частота : 48,0 КГц Битовая глубина : 16 бит Метод сжатия : С потерями Размер потока : 226 Мбайт (20%) Выравнивание : Разделение по промежуткам Продолжительность промежутка : 40 мс. (1,00 видеокадр) Время предзагрузки промежутка : 500 мс
[+] Скриншоты
[+] Интересные факты «Борис Годунов» — последний фильм Сергея Бондарчука, который вышел на экраны при его жизни.

Всего файлов в раздаче: 2 
01.avi1.11 GB
02.avi1.08 GB

Похожие раздачи по запросу - Борис
2024-04-08 magnet Борис Кривенков - Охота за «Черным Драконом» (2024) MP3 681.21 MB ↑ 0 ↓ 0
2024-03-28 magnet Борис Тарасов - Паскаль (2024) МР3 421.06 MB ↑ 0 ↓ 0
2024-03-03 magnet Борис Конофальский - Путь инквизитора 8. Башмаки на флагах (2024) МР3 695.13 MB ↑ 0 ↓ 0
2024-02-23 magnet Борис Конофальский - Собрание сочинений (2018-2024) FB2 65.74 MB ↑ 0 ↓ 0
2024-01-12 magnet Борис Гребенщиков - Songs of Clear Light [24-bit Hi-Res] (2024) FLAC 820.72 MB ↑ 1 ↓ 0
2023-11-26 magnet Борис Конофальский - Путь инквизитора 7. Плохая война (2023) МР3 355.22 MB ↑ 0 ↓ 0
2023-11-07 magnet Борис Акунин - Квест (2014) МР3 1.10 GB ↑ 0 ↓ 0

Комментарии


Зарегистрируйтесь чтобы добавить комментарий
Торрент клиент
byTorrent - программа для загрузки торрент-файлов.

Скачать byTorrent.exe (1,5 МБ)

Скачать byTorrent.zip (0,6 МБ)

Поддержи torrent.by
российских рублей
(300 российских рублей это 4$)

Обратная связь rss

End game ©