↑↓torrent.by
Поиск
Логин:  Регистрация
Пароль:

Чёрное солнце [01-10 из 12] (2023) WEBRip 720p от ExKinoRay

download Скачать торрент-файл   magnet Магнитная ссылка Размер: 13.13 GB Добавлен: 2024-03-29 11:00
Пиры будут получены из сети DHT
Последний сидер был замечен 2024-04-01 19:50
Информация о фильме Название: Чёрное солнце Год выхода: 2023 Жанр: Детектив, драма Режиссер: Анна Носатова В ролях: Юрий Чурсин, Максим Стоянов, Виктория Корлякова, Петр Кислов, Григорий Зельцер, Петар Зекавица, Пётр Романов, Александра Большакова, Полина Ватага, Петр Нечипоренко, Сергей Козик, Валерий Скорокосов, Ксения Плюснина, Дарья Румянцева, Дмитрий Сотниченко, Артур Казберов, Светлана Нестерова, Елизавета Потапова, Александр Силаев, Татьяна Косач-Брындина, Роман Каун, Дарья Сергеева, Владимир Якимов, Ника Борисова, Михаил Апальков, Михаил Коновалов, Вероника Ряполова, Вадим Пироженко О фильме: Оперуполномоченный капитан Евгений Чагин отправляется в лес под Выборгом, где, по заявлению молдаванки Габи, обратившейся в полицию, пропала ее сестра. На месте поисков Чагин обнаруживает остатки костра, и на следующий день узнает, что Габи тоже исчезла. Вместе с тем в городе появляется новый следователь — Игорь Жук, он прибывает на место убийства, — одноклассник Чагина убил нескольких бандитов. Чагин пытался помочь однокласснику сокрыть улики. Между Жуком и Чагиным зарождается конфликт, выливающийся в увольнение Чагина из полиции. Вскоре в том же лесу, близ места, куда ездили Чагин и Габи, находят труп без головы и кистей рук. Жуку и Чагину приходится объединиться, чтобы поймать убийцу. Они выясняют, что ранее полиция находила такие же тела, но не связывала дела друг с другом. Становится очевидно, что поймать убийцу не так-то просто, и действует, он, похоже, не один. Страна: Россия Студия: Кинокомпания «Драйв», Телекомпания НТВ Язык:Русский Премьера в Росcии: 01 марта 2024 года Цифровой релиз: 01 марта 2024 года Возраст: 18+ Файл Формат: MKV Качество: WEBRip 720p Видео: MPEG-4 AVC, ~ 3500 Кбит/с, 1280x720, 25 кадр/с Аудио : Русский AC3, 2 ch, 192 Кбит/с RUS Продолжительность: 10 x ~ 00:50:00 Субтитры: Нет Реклама: Отсутствует
[+] МИ General Unique ID : 216927763441405081140263994277999359174 (0xA332C47D6013BCDFB62CDFFEC33334C6) Complete name : G:Chyornoe.solnce.S01.2023.WEB-DLRip.720p.ExKinoRayChyornoe.solnce.S01.E01.2023.WEB-DLRip.720p.ExKinoRay.mkv Format : Matroska Format version : Version 4 File size : 1.32 GiB Duration : 51 min 3 s Overall bit rate : 3 694 kb/s Encoded date : UTC 2024-03-01 10:42:55 Writing application : mkvmerge v6.9.1 ('Blue Panther') 64bit built on Apr 18 2014 18:23:38 Writing library : libebml v1.3.0 + libmatroska v1.4.1 Video ID : 1 Format : AVC Format/Info : Advanced Video Codec Format profile : High@L4.1 Format settings : CABAC / 9 Ref Frames Format settings, CABAC : Yes Format settings, Reference frames : 9 frames Codec ID : V_MPEG4/ISO/AVC Duration : 51 min 3 s Bit rate : 3 500 kb/s Width : 1 280 pixels Height : 720 pixels Display aspect ratio : 16:9 Frame rate mode : Constant Frame rate : 25.000 FPS Color space : YUV Chroma subsampling : 4:2:0 Bit depth : 8 bits Scan type : Progressive Bits/(Pixel*Frame) : 0.152 Stream size : 1.22 GiB (93%) Writing library : x264 core 146 r2538 121396c Encoding settings : cabac=1 / ref=9 / deblock=1:-3:-3 / analyse=0x3:0x113 / me=umh / subme=11 / psy=1 / psy_rd=1.00:0.02 / mixed_ref=1 / me_range=32 / chroma_me=1 / trellis=2 / 8x8dct=1 / cqm=0 / deadzone=21,11 / fast_pskip=1 / chroma_qp_offset=-3 / threads=24 / lookahead_threads=10 / sliced_threads=0 / nr=0 / decimate=0 / interlaced=0 / bluray_compat=0 / constrained_intra=0 / bframes=10 / b_pyramid=2 / b_adapt=2 / b_bias=0 / direct=3 / weightb=1 / open_gop=0 / weightp=2 / keyint=250 / keyint_min=25 / scenecut=40 / intra_refresh=0 / rc_lookahead=60 / rc=2pass / mbtree=1 / bitrate=3500 / ratetol=1.0 / qcomp=0.60 / qpmin=0 / qpmax=69 / qpstep=4 / cplxblur=20.0 / qblur=0.5 / vbv_maxrate=14000 / vbv_bufsize=14000 / nal_hrd=none / filler=0 / ip_ratio=1.40 / aq=3:1.40 Language : Russian Default : Yes Forced : No Color range : Limited Color primaries : BT.709 Transfer characteristics : BT.709 Matrix coefficients : BT.709 Audio ID : 2 Format : AC-3 Format/Info : Audio Coding 3 Commercial name : Dolby Digital Codec ID : A_AC3 Duration : 51 min 3 s Bit rate mode : Constant Bit rate : 192 kb/s Channel(s) : 2 channels Channel layout : L R Sampling rate : 48.0 kHz Frame rate : 31.250 FPS (1536 SPF) Compression mode : Lossy Stream size : 70.1 MiB (5%) Language : Russian Service kind : Complete Main Default : Yes Forced : No
[+] Скриншоты
Релиз от:

Всего файлов в раздаче: 10 
Chyornoe.solnce.S01.E01.2023.WEB-DLRip.720p.ExKinoRay.mkv1.32 GB
Chyornoe.solnce.S01.E02.2023.WEB-DLRip.720p.ExKinoRay.mkv1.22 GB
Chyornoe.solnce.S01.E03.2023.WEB-DLRip.720p.ExKinoRay.mkv1.34 GB
Chyornoe.solnce.S01.E04.2023.WEB-DLRip.720p.ExKinoRay.mkv1.31 GB
Chyornoe.solnce.S01.E05.2023.WEB-DLRip.720p.ExKinoRay.mkv1.37 GB
Chyornoe.solnce.S01.E06.2023.WEB-DLRip.720p.ExKinoRay.mkv1.33 GB
Chyornoe.solnce.S01.E07.2023.WEB-DLRip.720p.ExKinoRay.mkv1.30 GB
Chyornoe.solnce.S01.E08.2023.WEB-DLRip.720p.ExKinoRay.mkv1.26 GB
Chyornoe.solnce.S01.E09.2023.WEB-DLRip.720p.ExKinoRay.mkv1.37 GB
Chyornoe.solnce.S01.E10.2023.WEB-DLRip.720p.ExKinoRay.mkv1.31 GB

Похожие раздачи по запросу - Чёрное
2024-04-15 magnet Чёрное солнце [S01] (2023) WEBRip от Generalfilm | КПК 2.27 GB ↑ 0 ↓ 0
2024-04-06 magnet Чёрное солнце [S01] (2023) WEBRip 720p от ExKinoRay 15.75 GB ↑ 1 ↓ 0
2024-04-06 magnet Чёрное солнце [S01] (2023) WEBRip 1080p 26.89 GB ↑ 0 ↓ 2
2024-04-06 magnet Чёрное солнце [S01] (2023) WEBRip 7.90 GB ↑ 1 ↓ 0
2024-04-06 magnet Чёрное солнце [01х01-12 из 12] (2023) WEBRip-AVC от Files-х 7.65 GB ↑ 0 ↓ 0
2024-04-05 magnet Чёрное солнце / Серии: 1-12 из 12 [2023, детектив, драма, WEBRip-AVC] от Aleksan55 7.66 GB ↑ 2 ↓ 0
2024-03-29 magnet Чёрное солнце [01х01-10 из 12] (2023) WEBRip-AVC от Files-х 6.37 GB ↑ 0 ↓ 0

Комментарии


Зарегистрируйтесь чтобы добавить комментарий
Торрент клиент
byTorrent - программа для загрузки торрент-файлов.

Скачать byTorrent.exe (1,5 МБ)

Скачать byTorrent.zip (0,6 МБ)

Поддержи torrent.by
российских рублей
(300 российских рублей это 4$)

Обратная связь rss

End game ©