↑↓torrent.by
Поиск
Логин:  Регистрация
Пароль:

Неверные [01-05 из 08] (2024) WEB-DLRip 720p от ExKinoRay

download Скачать торрент-файл   magnet Магнитная ссылка Размер: 5.73 GB Добавлен: 2024-03-29 17:00
Пиры будут получены из сети DHT
Последний сидер был замечен 2024-04-15 17:27
Информация о фильме Название: Неверные Год выхода: 2024 Жанр: Драма Режиссер: Алексей Кузмин-Тарасов В ролях: Оксана Акиньшина, Роман Евдокимов, Егор Дружинин, Иван Добронравов, Евдокия Германова, Нелли Уварова, Мила Ершова, Лидия Вележева, Алёна Хмельницкая, Евгений Санников, Павел Баршак, Евгений Романцов, Надежда Сысоева, Василий Мичков, Алиса Шевердина, Юлия Мандрико, Алексей Сошин, Кирилл Авалиани, Марина Карлышева, Елизавета Калугина, Валентин Ельцов, Анастасия Цыбульская, Кристина Работенко, Ольга Сергеева, Полина Крикунова, Полина Аршук, Татьяна Тихменёва, Мария Чувилина, Елена Квасникова, Эврика Аллавердонц, Илья Шидловский, Александр Десятов, Виктор Конухин, Александр Буянов, Александр Голубков, Татьяна Волкова, Сергей Тезов, Павел Данекин, Сергей Новосад, Карина Александрова, Влад Коноплёв, Давид Сократян, Евгений Потапенко, Виктор Васильев, Мария Большова, Игорь Лизенгевич, Елена Дробышева, Наталья Батрак, Альянура Третьякова, Андрей Назимов, Егор Заховаев, Мария Лукьянова, Анна Осипова, Виктория Лим, Артем Семакин, Сергей Калашник, Дарья Войновская, Сергей Масленников, Екатерина Иванова, Георгий Тополага, Николай Трифилов, Аделина Мнацаканова, Амбарцум Кабанян, Кирилл Якушенко О фильме: Потеряв себя, Ольга Шилковская лишается и единственного сына. Когда муж забирает у нее ребенка, она принимает решение вернуться к адвокатской практике и делает карьеру на бракоразводных и семейных процессах. Но спасти себя оказывается сложнее, чем стать медийным и успешным адвокатом. К Ольге приходят за помощью, когда оказываются в безвыходной ситуации и нет возможности разрешить конфликт мирным путем. Она находит нестандартные выходы из положения, чтобы не доводить дело до суда. Никто не знает, как тяжело это дается ей на самом деле. Страна: Россия Студия: НМГ Студия, Видеопрокат, Видеосервис Wink Язык:Русский Премьера в Росcии: 07 марта 2024 года Цифровой релиз: 07 марта 2024 года Возраст: 18+ Файл Формат: MKV Качество: WEB-DLRip 720p Видео: MPEG-4 AVC, ~ 3000 Кбит/с, 1280x520, 25 кадр/с Аудио : Русский AC3, 2 ch, 192 Кбит/с RUS Продолжительность: 5 х ~ 00:50:00 Субтитры: Нет Реклама: Отсутствует
[+] МИ General Unique ID : 210645957834677585073809152409480740855 (0x9E78EF8FA863D80B8FA2D9129C643FF7) Complete name : G:Nevernye.S01.2024.WEB-DLRip.720p.ExKinoRayNevernye.S01.E01.2024.WEB-DLRip.720p.ExKinoRay.mkv Format : Matroska Format version : Version 4 File size : 1.11 GiB Duration : 49 min 38 s Overall bit rate : 3 194 kb/s Encoded date : UTC 2024-03-07 11:28:47 Writing application : mkvmerge v6.9.1 ('Blue Panther') 64bit built on Apr 18 2014 18:23:38 Writing library : libebml v1.3.0 + libmatroska v1.4.1 Video ID : 1 Format : AVC Format/Info : Advanced Video Codec Format profile : High@L4.1 Format settings : CABAC / 9 Ref Frames Format settings, CABAC : Yes Format settings, Reference frames : 9 frames Codec ID : V_MPEG4/ISO/AVC Duration : 49 min 38 s Bit rate : 3 000 kb/s Width : 1 280 pixels Height : 520 pixels Display aspect ratio : 2.462 Frame rate mode : Constant Frame rate : 25.000 FPS Color space : YUV Chroma subsampling : 4:2:0 Bit depth : 8 bits Scan type : Progressive Bits/(Pixel*Frame) : 0.180 Stream size : 1.02 GiB (92%) Writing library : x264 core 146 r2538 121396c Encoding settings : cabac=1 / ref=9 / deblock=1:-3:-3 / analyse=0x3:0x113 / me=umh / subme=11 / psy=1 / psy_rd=1.00:0.02 / mixed_ref=1 / me_range=32 / chroma_me=1 / trellis=2 / 8x8dct=1 / cqm=0 / deadzone=21,11 / fast_pskip=1 / chroma_qp_offset=-3 / threads=24 / lookahead_threads=8 / sliced_threads=0 / nr=0 / decimate=0 / interlaced=0 / bluray_compat=0 / constrained_intra=0 / bframes=10 / b_pyramid=2 / b_adapt=2 / b_bias=0 / direct=3 / weightb=1 / open_gop=0 / weightp=2 / keyint=250 / keyint_min=25 / scenecut=40 / intra_refresh=0 / rc_lookahead=60 / rc=2pass / mbtree=1 / bitrate=3000 / ratetol=1.0 / qcomp=0.60 / qpmin=0 / qpmax=69 / qpstep=4 / cplxblur=20.0 / qblur=0.5 / vbv_maxrate=14000 / vbv_bufsize=14000 / nal_hrd=none / filler=0 / ip_ratio=1.40 / aq=3:1.40 Language : Russian Default : Yes Forced : No Color range : Limited Color primaries : BT.709 Transfer characteristics : BT.709 Matrix coefficients : BT.709 Audio ID : 2 Format : AC-3 Format/Info : Audio Coding 3 Commercial name : Dolby Digital Codec ID : A_AC3 Duration : 49 min 38 s Bit rate mode : Constant Bit rate : 192 kb/s Channel(s) : 2 channels Channel layout : L R Sampling rate : 48.0 kHz Frame rate : 31.250 FPS (1536 SPF) Compression mode : Lossy Stream size : 68.2 MiB (6%) Title : Language : Russian Service kind : Complete Main Default : Yes Forced : No
[+] Скриншоты
Релиз от:

Всего файлов в раздаче: 5 
Nevernye.S01.E01.2024.WEB-DLRip.720p.ExKinoRay.mkv1.11 GB
Nevernye.S01.E02.2024.WEB-DLRip.720p.ExKinoRay.mkv1.08 GB
Nevernye.S01.E03.2024.WEB-DLRip.720p.ExKinoRay.mkv1.16 GB
Nevernye.S01.E04.2024.WEB-DLRip.720p.ExKinoRay.mkv1.18 GB
Nevernye.S01.E05.2024.WEB-DLRip.720p.ExKinoRay.mkv1.21 GB

Похожие раздачи по запросу - Неверные
2024-04-12 magnet Неверные [01-07 из 08] (2024) WEB-DLRip 720p от ExKinoRay 8.10 GB ↑ 0 ↓ 0
2024-04-12 magnet Неверные [01-07 из 08] (2024) WEB-DLRip-AVC от Files-x 4.45 GB ↑ 0 ↓ 0
2024-04-11 magnet Неверные [01-07 из 08] (2024) WEB-DLRip 4.60 GB ↑ 0 ↓ 0
2024-04-11 magnet Неверные [01-07 из 08] (2024) WEB-DL 1080p 10.01 GB ↑ 1 ↓ 0
2024-04-06 magnet Неверные [01-06 из 08] (2024) WEB-DLRip 720p от ExKinoRay 6.82 GB ↑ 0 ↓ 0
2024-04-06 magnet Неверные [01-06 из 08] (2024) WEB-DLRip-AVC от Files-x 3.83 GB ↑ 0 ↓ 0
2024-04-05 magnet Неверные [01-06 из 08] (2024) WEB-DL 1080p 8.62 GB ↑ 0 ↓ 0

Комментарии


Зарегистрируйтесь чтобы добавить комментарий
Торрент клиент
byTorrent - программа для загрузки торрент-файлов.

Скачать byTorrent.exe (1,5 МБ)

Скачать byTorrent.zip (0,6 МБ)

Поддержи torrent.by
российских рублей
(300 российских рублей это 4$)

Обратная связь rss

End game ©