↑↓torrent.by
Поиск
Логин:  Регистрация
Пароль:

Вернуть любой ценой / Отпуск в декабре [01-07 из 08] (2018-2024) WEBRip 1080p

download Скачать торрент-файл   magnet Магнитная ссылка Размер: 16.17 GB Добавлен: 2024-03-29 17:00
Пиры будут получены из сети DHT
Последний сидер был замечен 2024-03-29 19:46
Информация о фильме Оригинальное название: Вернуть любой ценой / Отпуск в декабре Год выпуска: 2018-2024 Жанр: Драма, военный Выпущено: Россия, Первый канал Режиссер: Тимур Алпатов В ролях: Антон Батырев, Сергей Пускепалис, Алексей Кравченко, Артём Алексеев, Дмитрий Калязин, Марина Александрова, Андрей Смоляков, Сергей Соцердотский, Лариса Домаскина, Саёра Сафари, Светлана Корчагина, Дмитрий Смирнов, Александр Левин, Даниил Беломестных, Диана Мкртчян О фильме: СССР, 1983 год. Дина едет на стажировку в медицинский госпиталь в Афганистан и сталкивается не только с ужасами войны, но и с настоящей любовью, которой, кажется нет места на этой земле. Спасенный Диной офицер Герасимов видит в ней смысл своей жизни и готов рискнуть всем, лишь бы быть с ней. Узнав, что Дина в опасности, он отправляется на далекую горную заставу и вступает в опасный бой, чтобы спасти любимую. Файл Формат: MKV Качество: WEBRip 1080p Видео: MPEG-4 AVC, ~ 6144 Кбит/с, 1920x1080 Аудио: AC3, 2 ch, 192 Кбит/с Продолжительность: ~ 00:52:00 Язык: Русский Субтитры: Нет
[+] MIGeneral Unique ID : 163786340881628382958948633530727272433 (0x7B381A12176C5D5970FB0A4483FE0FF1) Complete name : W:Vernut'.luboji.cenoji.S01.WEB-DL.1080p.MrMittensVernut'.luboji.cenoji.S01.E01.WEB-DL.1080p.MrMittens.mkv Format : Matroska Format version : Version 4 / Version 2 File size : 2.37 GiB Duration : 53 min 45 s Overall bit rate mode : Constant Overall bit rate : 6 321 kb/s Encoded date : UTC 2024-02-23 05:48:06 Writing application : mkvmerge v43.0.0 ('The Quartermaster') 64-bit Writing library : libebml v1.3.10 + libmatroska v1.5.2 Video ID : 1 Format : AVC Format/Info : Advanced Video Codec Format profile : Baseline@L4 Format settings : 2 Ref Frames Format settings, CABAC : No Format settings, ReFrames : 2 frames Format settings, GOP : M=1, N=25 Codec ID : V_MPEG4/ISO/AVC Duration : 53 min 45 s Bit rate mode : Constant Bit rate : 6 144 kb/s Width : 1 920 pixels Height : 1 080 pixels Display aspect ratio : 16:9 Frame rate mode : Constant Frame rate : 25.000 FPS Color space : YUV Chroma subsampling : 4:2:0 Bit depth : 8 bits Scan type : Progressive Bits/(Pixel*Frame) : 0.119 Stream size : 2.30 GiB (97%) Language : English Default : Yes Forced : No Audio ID : 2 Format : AC-3 Format/Info : Audio Coding 3 Codec ID : A_AC3 Duration : 53 min 44 s Bit rate mode : Constant Bit rate : 192 kb/s Channel(s) : 2 channels Channel positions : Front: L R Sampling rate : 48.0 kHz Frame rate : 31.250 FPS (1536 SPF) Bit depth : 16 bits Compression mode : Lossy Stream size : 73.8 MiB (3%) Language : Russian Service kind : Complete Main Default : Yes Forced : No
[+] Скриншоты

Всего файлов в раздаче: 7 
Vernut'.luboji.cenoji.S01.E01.WEB-DL.1080p.MrMittens.mkv2.40 GB
Vernut'.luboji.cenoji.S01.E02.WEB-DL.1080p.MrMittens.mkv2.31 GB
Vernut'.luboji.cenoji.S01.E03.WEB-DL.1080p.MrMittens.mkv2.30 GB
Vernut'.luboji.cenoji.S01.E04.WEB-DL.1080p.MrMittens.mkv2.26 GB
Vernut'.luboji.cenoji.S01.E05.WEB-DL.1080p.MrMittens.mkv2.30 GB
Vernut'.luboji.cenoji.S01.E06.WEB-DL.1080p.MrMittens.mkv2.29 GB
Vernut'.luboji.cenoji.S01.E07.WEB-DL.1080p.MrMittens.mkv2.31 GB

Похожие раздачи по запросу - Вернуть
2024-04-07 magnet Вернуть любой ценой / Отпуск в декабре [S01] (2018-2024) WEBRip-AVC от Generalfilm | КПК 1.81 GB ↑ 0 ↓ 0
2024-04-06 magnet Вернуть любой ценой / Отпуск в декабре [S01] (2018-2024) WEBRip-AVC от Files-x 5.12 GB ↑ 0 ↓ 0
2024-04-06 magnet Вернуть любой ценой / Отпуск в декабре [S01] (2018-2024) WEBRip 720p от ExKinoRay 10.65 GB ↑ 0 ↓ 0
2024-04-05 magnet Вернуть любой ценой / Отпуск в декабре [01-08 из 08] (2018-2024) WEBRip от Files-x 5.09 GB ↑ 0 ↓ 0
2024-04-05 magnet Вернуть любой ценой / Отпуск в декабре [S01] (2018-2024) WEBRip 5.47 GB ↑ 0 ↓ 0
2024-04-05 magnet Вернуть любой ценой / Отпуск в декабре [S01] (2018-2024) WEBRip 1080p 18.19 GB ↑ 0 ↓ 0
2024-04-05 magnet Вернуть любой ценой / Серии: 1-8 из 8 [2018, драма, WEBRip-AVC] от Aleksan55 5.11 GB ↑ 0 ↓ 0

Комментарии


Зарегистрируйтесь чтобы добавить комментарий
Торрент клиент
byTorrent - программа для загрузки торрент-файлов.

Скачать byTorrent.exe (1,5 МБ)

Скачать byTorrent.zip (0,6 МБ)

Поддержи torrent.by
российских рублей
(300 российских рублей это 4$)

Обратная связь rss

End game ©