↑↓torrent.by
Поиск
Логин:  Регистрация
Пароль:

Вернуть любой ценой / Отпуск в декабре [01-07 из 08] (2018-2024) WEBRip

download Скачать торрент-файл   magnet Магнитная ссылка Размер: 4.87 GB Добавлен: 2024-03-29 17:00
Пиры будут получены из сети DHT
Последний сидер был замечен 2024-04-12 16:39
Информация о фильме Оригинальное название: Вернуть любой ценой / Отпуск в декабре Год выпуска: 2018-2024 Жанр: Драма, военный Выпущено: Россия, Первый канал Режиссер: Тимур Алпатов В ролях: Антон Батырев, Сергей Пускепалис, Алексей Кравченко, Артём Алексеев, Дмитрий Калязин, Марина Александрова, Андрей Смоляков, Сергей Соцердотский, Лариса Домаскина, Саёра Сафари, Светлана Корчагина, Дмитрий Смирнов, Александр Левин, Даниил Беломестных, Диана Мкртчян О фильме: СССР, 1983 год. Дина едет на стажировку в медицинский госпиталь в Афганистан и сталкивается не только с ужасами войны, но и с настоящей любовью, которой, кажется нет места на этой земле. Спасенный Диной офицер Герасимов видит в ней смысл своей жизни и готов рискнуть всем, лишь бы быть с ней. Узнав, что Дина в опасности, он отправляется на далекую горную заставу и вступает в опасный бой, чтобы спасти любимую. Файл Формат: AVI Качество: WEBRip Видео: XviD, ~ 1650 Кбит/с, 720x304 Аудио: AC3, 2 ch, 256 Кбит/с Продолжительность: ~ 00:52:00 Язык: Русский Субтитры: Нет
[+] MIGeneral Complete name : W:Vernut.luboji.cenoji.S01.2024.WEB-DLRip.DenSBKVernut.luboji.cenoji.S01.E01.2024.WEB-DLRip.DenSBK.avi Format : AVI Format/Info : Audio Video Interleave File size : 741 MiB Duration : 53 min 45 s Overall bit rate : 1 927 kb/s Writing application : VirtualDubMod 1.5.10.3 | www.virtualdub-fr.org || (build 2550/release) Writing library : VirtualDubMod build 2550/release Video ID : 0 Format : MPEG-4 Visual Format profile : Advanced Simple@L5 Format settings : BVOP1 / Custom Matrix Format settings, BVOP : 1 Format settings, QPel : No Format settings, GMC : No warppoints Format settings, Matrix : Custom Codec ID : XVID Codec ID/Hint : XviD Duration : 53 min 45 s Bit rate : 1 661 kb/s Width : 720 pixels Height : 304 pixels Display aspect ratio : 2.35:1 Frame rate : 25.000 FPS Color space : YUV Chroma subsampling : 4:2:0 Bit depth : 8 bits Scan type : Progressive Compression mode : Lossy Bits/(Pixel*Frame) : 0.304 Stream size : 639 MiB (86%) Writing library : XviD 73 Audio ID : 1 Format : AC-3 Format/Info : Audio Coding 3 Codec ID : 2000 Duration : 53 min 44 s Bit rate mode : Constant Bit rate : 256 kb/s Channel(s) : 2 channels Channel positions : Front: L R Sampling rate : 48.0 kHz Frame rate : 31.250 FPS (1536 SPF) Bit depth : 16 bits Compression mode : Lossy Stream size : 98.4 MiB (13%) Alignment : Split accross interleaves Interleave, duration : 40 ms (1.00 video frame) Interleave, preload duratio : 500 ms Service kind : Complete Main
[+] Скриншоты

Всего файлов в раздаче: 7 
Vernut.luboji.cenoji.S01.E01.2024.WEB-DLRip.DenSBK.avi740.73 MB
Vernut.luboji.cenoji.S01.E02.2024.WEB-DLRip.DenSBK.avi714.21 MB
Vernut.luboji.cenoji.S01.E03.2024.WEB-DLRip.DenSBK.avi706.12 MB
Vernut.luboji.cenoji.S01.E04.2024.WEB-DLRip.DenSBK.avi700.96 MB
Vernut.luboji.cenoji.S01.E05.2024.WEB-DLRip.DenSBK.avi707.11 MB
Vernut.luboji.cenoji.S01.E06.2024.WEB-DLRip.DenSBK.avi704.10 MB
Vernut.luboji.cenoji.S01.E07.2024.WEB-DLRip.DenSBK.avi710.07 MB

Похожие раздачи по запросу - Вернуть
2024-04-17 magnet Эндрю МакКоннел - Думай как стоик. Философия, которая позволит вернуть контроль над собственным разумом (2023) MP3 204.81 MB ↑ 0 ↓ 0
2024-04-07 magnet Вернуть любой ценой / Отпуск в декабре [S01] (2018-2024) WEBRip-AVC от Generalfilm | КПК 1.81 GB ↑ 0 ↓ 0
2024-04-06 magnet Вернуть любой ценой / Отпуск в декабре [S01] (2018-2024) WEBRip-AVC от Files-x 5.12 GB ↑ 1 ↓ 0
2024-04-06 magnet Вернуть любой ценой / Отпуск в декабре [S01] (2018-2024) WEBRip 720p от ExKinoRay 10.65 GB ↑ 0 ↓ 0
2024-04-05 magnet Вернуть любой ценой / Отпуск в декабре [01-08 из 08] (2018-2024) WEBRip от Files-x 5.09 GB ↑ 0 ↓ 0
2024-04-05 magnet Вернуть любой ценой / Отпуск в декабре [S01] (2018-2024) WEBRip 5.47 GB ↑ 0 ↓ 0
2024-04-05 magnet Вернуть любой ценой / Отпуск в декабре [S01] (2018-2024) WEBRip 1080p 18.19 GB ↑ 0 ↓ 0

Комментарии


Зарегистрируйтесь чтобы добавить комментарий
Торрент клиент
byTorrent - программа для загрузки торрент-файлов.

Скачать byTorrent.exe (1,5 МБ)

Скачать byTorrent.zip (0,6 МБ)

Поддержи torrent.by
российских рублей
(300 российских рублей это 4$)

Обратная связь rss

End game ©