↑↓torrent.by
Поиск
Логин:  Регистрация
Пароль:

Зло [S01] (2024) WEB-DL 1080p

download Скачать торрент-файл   magnet Магнитная ссылка Размер: 17.56 GB Добавлен: 2024-03-29 17:00
Пиры будут получены из сети DHT
Последний сидер был замечен вчера в 22:45
Информация о фильме Оригинальное название: Зло Год выпуска: 2024 Жанр: Детектив, криминал Выпущено: Рссия, Пиманов и партнеры, РЕН ТВ Режиссер: Алексей Мурадов В ролях: Даниил Страхов, Евгений Харитонов, Андрей Чернышов, Эдуард Флёров, Павел Трубинер, Александр Устюгов, Любовь Толкалина, Борис Щербаков, Алёна Коломина, Екатерина Олькина, Татьяна Фёдорова (II), Александр Назаров (II), Марина Петренко, Сергей Юшкевич, Евгений Миллер О сериале: По мотивам одноименного романа Эдуарда Хруцкого. 1979 год. Журналист Юрий Ельцов и его друг следователь Игорь Анохин расследуют громкое дело об ограблении известной балерины. Ельцов обращается за помощью к своему старшему брату Игорю, бывшему начальнику МУРа. Брат по своим каналам узнает о причастности к ограблению работника аппарата ЦК. В это же время в Ереване происходит ограбление банка, которое по заданию уголовного авторитета Ястреба совершает специально выпущенный на волю медвежатник Махаон. После ограбления люди Ястреба пытаются убить Махаона и его напарника, но Махаону удается спастись. Он решает обратиться к своему другу детства – журналисту Юрию Ельцову, ведь за Ястребом явно стоит очень влиятельный человек. За попытку разворошить крупное преступное «гнездо под прикрытием» Юрию грозит серьезная опасность. Как принять правильное решение и уберечь близких, когда оказался в центре особого внимания самых влиятельных и опасных людей страны? Юрий вместе с братом и следователем Анохиным сделают все, чтобы раскрыть это запутанное дело. Файл Формат: MKV Качество: WEB-DL 1080p Видео: MPEG-4 AVC, ~ 4000 Кбит/с, 1920x1080 Аудио: AC3, 2 ch, 192 Кбит/с Продолжительность: 12x ~ 00:50:00 Язык: Русский Субтитры: Нет
[+] MIGeneral Unique ID : 4176095723088869504422624557534097231 (0x324496A7040BAE8CE5203EA532D2F4F) Complete name : W:Zlo.S01.WEB-DL.1080p.MrMittensZlo.S01.E01.WEB-DL.1080p.MrMittens.mkv Format : Matroska Format version : Version 4 / Version 2 File size : 1.44 GiB Duration : 49 min 23 s Overall bit rate mode : Constant Overall bit rate : 4 171 kb/s Encoded date : UTC 2024-02-23 05:06:47 Writing application : mkvmerge v81.0 ('Milliontown') 64-bit Writing library : libebml v1.4.4 + libmatroska v1.7.1 Video ID : 1 Format : AVC Format/Info : Advanced Video Codec Format profile : High@L4 Format settings : CABAC / 3 Ref Frames Format settings, CABAC : Yes Format settings, ReFrames : 3 frames Codec ID : V_MPEG4/ISO/AVC Duration : 49 min 23 s Bit rate mode : Constant Bit rate : 4 000 kb/s Width : 1 920 pixels Height : 1 080 pixels Display aspect ratio : 16:9 Frame rate mode : Constant Frame rate : 25.000 FPS Color space : YUV Chroma subsampling : 4:2:0 Bit depth : 8 bits Scan type : Progressive Bits/(Pixel*Frame) : 0.077 Stream size : 1.37 GiB (95%) Language : Russian Default : Yes Forced : No Audio ID : 2 Format : AC-3 Format/Info : Audio Coding 3 Codec ID : A_AC3 Duration : 49 min 23 s Bit rate mode : Constant Bit rate : 192 kb/s Channel(s) : 2 channels Channel positions : Front: L R Sampling rate : 48.0 kHz Frame rate : 31.250 FPS (1536 SPF) Bit depth : 16 bits Compression mode : Lossy Stream size : 67.8 MiB (5%) Language : Russian Service kind : Complete Main Default : Yes Forced : No
[+] Скриншоты

Всего файлов в раздаче: 12 
Zlo.S01.E01.WEB-DL.1080p.MrMittens.mkv1.44 GB
Zlo.S01.E02.WEB-DL.1080p.MrMittens.mkv1.46 GB
Zlo.S01.E03.WEB-DL.1080p.MrMittens.mkv1.48 GB
Zlo.S01.E04.WEB-DL.1080p.MrMittens.mkv1.47 GB
Zlo.S01.E05.WEB-DL.1080p.MrMittens.mkv1.47 GB
Zlo.S01.E06.WEB-DL.1080p.MrMittens.mkv1.45 GB
Zlo.S01.E07.WEB-DL.1080p.MrMittens.mkv1.46 GB
Zlo.S01.E08.WEB-DL.1080p.MrMittens.mkv1.47 GB
Zlo.S01.E09.WEB-DL.1080p.MrMittens.mkv1.47 GB
Zlo.S01.E10.WEB-DL.1080p.MrMittens.mkv1.46 GB
Показать все файлы

Похожие раздачи по запросу - Зло
2024-04-05 magnet Сандроне Дациери - Зло, которое творят люди (2024) МР3 1.12 GB ↑ 0 ↓ 0
2024-04-05 magnet Зло [S01] (2024) WEB-DLRip от Files-x 7.45 GB ↑ 0 ↓ 0
2024-04-01 magnet Зло [S01] (2024) WEB-DLRip-AVC от Generalfilm | КПК 2.67 GB ↑ 0 ↓ 0
2024-03-30 magnet Зло [S01] (2024) WEB-DLRip от Generalfilm | КПК 2.24 GB ↑ 0 ↓ 0
2024-03-29 magnet Зло [S01] (2024) WEB-DLRip 7.76 GB ↑ 0 ↓ 0
2024-03-29 magnet Зло [S01] (2024) WEB-DLRip-AVC от Files-x 7.53 GB ↑ 0 ↓ 0
2024-03-29 magnet Зло [S01] (2024) WEB-DLRip 720p от ExKinoRay 13.43 GB ↑ 0 ↓ 0

Комментарии


Зарегистрируйтесь чтобы добавить комментарий
Торрент клиент
byTorrent - программа для загрузки торрент-файлов.

Скачать byTorrent.exe (1,5 МБ)

Скачать byTorrent.zip (0,6 МБ)

Поддержи torrent.by
российских рублей
(300 российских рублей это 4$)

Обратная связь rss

End game ©