↑↓torrent.by
Поиск
Логин:  Регистрация
Пароль:

Остров доктора Моро / The Island of Dr. Moreau (1977) BDRip от HQCLUB

download Скачать торрент-файл   magnet Магнитная ссылка Размер: 1.45 GB Добавлен: 2024-03-30 05:00
Пиры будут получены из сети DHT
Последний сидер был замечен вчера в 00:22
Остров доктора Моро / The Island of Dr. Moreau (1977) BDRip от HQCLUB Информация о фильме: Название: Остров доктора Моро Оригинальное название: The Island of Dr. Moreau Год выхода: 1977 Жанр: ужасы, фантастика, фэнтези, триллер, мелодрама, приключения Режиссер: Дон Тейлор В ролях: Берт Ланкастер, Майкл Йорк, Найджел Девенпорт, Барбара Каррера, Ричард Бейсхарт, Ник Крэвет, Великий Джон Л., Боб Озман, Фумио Демура, Гари Бэксли О фильме: На заброшенном острове безумный ученый доктор Моро с помощью специальной сыворотки превращает животных в подобие людей. Существует также и сыворотка, способная человека превратить в животное. По крайней мере, так полагает доктор Моро, и начинает испытывать ее действие на незваном госте: потерпевшем кораблекрушение моряке. И только бунт человеко-зверей поможет бедняге покинуть кошмарный остров. Релиз от - Автор рипа: sociolog_melvas Выпущено: США Продолжительность: 01:38:50 Перевод: профессиональный (многоголосый, закадровый) Субтитры: нет Файл: Формат: AVI Качество: BDRip (источник: HDClub / BDRemux / 1080p) Видео: 704x384 (1.83:1), 23,976 fps, XviD build 65 ~1900 kbps avg, 0.29 bit/pixel Аудио #1: 48 kHz, AC3 Dolby Digital, 2/0 (L,R) ch, ~192 kbps avg (MVO)
[+] Скриншоты:
[+] Mi Формат : AVI Формат/Информация : Audio Video Interleave Размер файла : 1,45 Гбайт Продолжительность : 1 ч. 38 м. Общий поток : 2102 Кбит/сек Название фильма : Остров доктора Моро / The Island of Dr. Moreau (1977) BDRip Режиссёр : sociolog_melvas Жанр : ужасы, фантастика, триллер Программа кодирования : VirtualDubMod 1.5.10.2 (build 2540/release) Примечание : 13.07.2015 Видео Идентификатор : 0 Формат : MPEG-4 Visual Профиль формата : Advanced Simple@L5 Параметр BVOP формата : 1 Параметр QPel формата : Нет Параметр GMC формата : Без точки перехода Параметр матрицы формата : Выборочная Идентификатор кодека : XVID Идентификатор кодека/Подсказка : XviD Продолжительность : 1 ч. 38 м. Битрейт : 1901 Кбит/сек Ширина : 704 пикселя Высота : 384 пикселя Соотношение сторон : 1,85:1 Частота кадров : 23,976 кадра/сек Цветовое пространство : YUV Субдискретизация насыщенности : 4:2:0 Битовая глубина : 8 бит Тип развёртки : Прогрессивная Метод сжатия : С потерями Бит/(Пиксели*Кадры) : 0.293 Размер потока : 1,31 Гбайт (90%) Библиотека кодирования : XviD 65 Аудио Идентификатор : 1 Формат : AC-3 Формат/Информация : Audio Coding 3 Расширение режима : CM (complete main) Параметр Endianness формата : Big Идентификатор кодека : 2000 Продолжительность : 1 ч. 38 м. Вид битрейта : Постоянный Битрейт : 192 Кбит/сек Каналы : 2 канала Расположение каналов : Front: L R Частота : 48,0 КГц Битовая глубина : 16 бит Метод сжатия : С потерями Размер потока : 136 Мбайт (9%) Выравнивание : Разделение по промежуткам Продолжительность промежутка : 42 мс. (1,00 видеокадр) Время предзагрузки промежутка : 500 мс.

Всего файлов в раздаче: 1 
Ostrov.doktora.Moro.1977.RUS.BDRip.XviD.AC3.-HQCLUB.avi1.45 GB

Похожие раздачи по запросу - Остров
2024-04-07 magnet Остров доктора Моро / The Island of Dr. Moreau (1996) BDRip-AVC от msltel | P, A | Режиссёрская версия 3.73 GB ↑ 0 ↓ 0
2024-03-17 magnet Остров иллюзий / Influencer (2022) BDRip 720p от DoMiNo & селезень | D 3.16 GB ↑ 0 ↓ 0
2024-03-17 magnet Остров иллюзий / Influencer (2022) BDRip-AVC от DoMiNo & селезень | D 1.46 GB ↑ 0 ↓ 0
2024-03-11 magnet Кунхам: Пограничный остров / Gun-ham-do / Gunhamdo / The Battleship Island (2017) BDRip от MegaPeer | Режиссерская версия | iTunes 1.46 GB ↑ 0 ↓ 0
2024-03-09 magnet Остров динозавров / Dinosaur Island / Jurassic Island (1994) DVDRip | P2, А 750.15 MB ↑ 0 ↓ 0
2024-01-06 magnet Остров иллюзий / Influencer (2022) BDRip 1080p от MegaPeer | D, P 7.41 GB ↑ 0 ↓ 0
2023-11-18 magnet Остров / The Island (2023) BDRip от MegaPeer | D 1.46 GB ↑ 0 ↓ 0

Комментарии


Зарегистрируйтесь чтобы добавить комментарий
Торрент клиент
byTorrent - программа для загрузки торрент-файлов.

Скачать byTorrent.exe (1,5 МБ)

Скачать byTorrent.zip (0,6 МБ)

Поддержи torrent.by
российских рублей
(300 российских рублей это 4$)

Обратная связь rss

End game ©