↑↓torrent.by
Поиск
Логин:  Регистрация
Пароль:

Уэнсдэй / Wednesday [S01] (2022) BDRip-HEVC 1080p от RIPS CLUB | D, P, A

download Скачать торрент-файл   magnet Магнитная ссылка Размер: 20.09 GB Добавлен: 2024-03-30 05:00
Пиры будут получены из сети DHT
Последний сидер был замечен 2024-04-20 08:15
Название: Уэнсдэй Оригинальное название: Wednesday Год производства: 2022 Производство: США / MGM Television, Millar Gough Ink, Tim Burton Productions, Toluca Pictures Жанр: фэнтези, комедия, криминал, детектив Режиссёр: Тим Бёртон, Джеймс Маршалл, Ганджа Монтейру В ролях: Дженна Ортега, Эмма Майерс, Хантер Дуэн, Перси Хайнс Уайт, Джой Сандэй, Джорджи Фармер, Кристина Риччи, Victor Dorobantu, Гвендолин Кристи, Рики Линдхоум О фильме: Уэнсдэй, дочь Гомеса и Мортиши Аддамс, учится в академии Nevermore. Ей предстоит освоить экстрасенсорные способности, чтобы остановить местного серийного убийцу и раскрыть тайну родителей. Продолжительность: ~00:48:00 серия Перевод: дублированный (неофициальный), многоголосый профессиональный, авторский Качество: BDRip-HEVC 1080p Кодек: HEVC (x265) Видео: 1920x1036, ~4813 Kbps, HEVC (Main10@L.4.1@High) 10 бит Звук: Аудио1: AC3, 2 ch, 256 Kbps - Русский, DUB (Red Head Sound) Аудио2: AC3, 6 ch, 448 Kbps - Русский, MVO (HDRezka Studio) Аудио3: AC3, 2 ch, 384 Kbps - Русский, MVO (LostFilm) Аудио4: E-AC3, 6 ch, 768 Kbps - Русский, AVO (Юрий Сербин) Аудио5: AC3, 6 ch, 640 Kbps - Английский Субтитры: русские (full, forced), английские Навигация по главам: Есть
[+] Лог (x265 info) + Mediainfo x265 : frame I: 292, Avg QP:17.34 kb/s: 14836.03 x265 : frame P: 10237, Avg QP:18.20 kb/s: 10762.71 x265 : frame B: 58708, Avg QP:20.99 kb/s: 3725.03 x265 : Weighted P-Frames: Y:11.2% UV:8.9% x265 : Weighted B-Frames: Y:11.4% UV:8.9% x265 : encoded 69237 frames in 44795.06s (1.55 fps), 4812.44 kb/s, Avg QP:20.56 Общее Уникальный идентификатор : 201753572891917865938234505695930103644 (0x97C853224A1A8A1D95E56016DBC0375C) Полное имя : .Wednesday.S01E06.Quid.Pro.Woe.mkv Формат : Matroska Версия формата : Version 4 Размер файла : 2,46 Гбайт Продолжительность : 48 мин. 7 с. Общий битрейт : 7 313 Кбит/сек Частота кадров : 23,976 кадра/сек Название фильма : Wednesday.S01E06.Quid.Pro.Woe / Бедовая услуга Имя трека/Расположение : 1 Кодирование выполнил : OldGamer Тип содержимого : TV Show Описание : Друзья Уэнсдэй устраивают ей вечеринку-сюрприз на день рождения. Они желают добра... но она предпочла бы отметить это печальное событие раскрытием убийств. Дата выпуска : 2022-11-23 Дата записи : 2022-11-23 Программа кодирования : mkvmerge v83.0 ('Circle Of Friends') 64-bit Библиотека кодирования : libebml v1.4.5 + libmatroska v1.7.1 / xvid4psp5 Обложка : Yes Attachments : cover.jpg ACTOR : Jenna Ortega, Emma Myers, Joy Sunday, Percy Hynes White, Hunter Doohan, Gwendoline Christie, Riki Lindhome, Jamie McShane, Moosa Mostafa, Christina Ricci, Georgie Farmer, Naomi J. Ogawa, Iman Marson, Johnna Dias-Watson, Oliver Watson, Daniel Himschoo... ARTIST : Jenna Ortega, Emma Myers, Joy Sunday, Percy Hynes White, Hunter Doohan, Gwendoline Christie, Riki Lindhome, Jamie McShane, Moosa Mostafa, Christina Ricci, Georgie Farmer, Naomi J. Ogawa, Iman Marson, Johnna Dias-Watson, Oliver Watson, Daniel Himschoo... DIRECTOR : Gandja Monteiro EPISODE.PART_NUM : 6 GENRE : НФ и Фэнтези, детектив, комедия LAW_RATING : TV-14 RATING : TV-14 SCREENPLAY_BY : April Blair SEASON.PART_NUM : 1 SUMMARY : Друзья Уэнсдэй устраивают ей вечеринку-сюрприз на день рождения. Они желают добра... но она предпочла бы отметить это печальное событие раскрытием убийств. SYNOPSIS : Друзья Уэнсдэй устраивают ей вечеринку-сюрприз на день рождения. Они желают добра... но она предпочла бы отметить это печальное событие раскрытием убийств. WRITTEN_BY : April Blair Видео Идентификатор : 1 Формат : HEVC Формат/Информация : High Efficiency Video Coding Профиль формата : Main 10@L4.1@High Идентификатор кодека : V_MPEGH/ISO/HEVC Продолжительность : 48 мин. 7 с. Битрейт : 4 813 Кбит/сек Ширина : 1 920 пикселей Высота : 1 036 пикселей Соотношение сторон дисплея : 1,85:1 Режим частоты кадров : Постоянный Частота кадров : 23,976 (24000/1001) кадра/сек Цветовое пространство : YUV Цветовая субдискретизация : 4:2:0 Битовая глубина : 10 бит Бит/(Пиксели*Кадры) : 0.101 Размер потока : 1,62 Гбайт (66%) Заголовок : Wednesday S01E06 / Rip by OldGamer Библиотека кодирования : x265 3.5+110-8ee01d45b: 10bit Параметры библиотеки кодирования : cpuid=1111039 / frame-threads=4 / numa-pools=16 / wpp / no-pmode / no-pme / no-psnr / no-ssim / log-level=2 / input-csp=1 / input-res=1920x1036 / interlace=0 / total-frames=69237 / level-idc=41 / high-tier=1 / uhd-bd=0 / ref=5 / no-allow-non-conformance / no-repeat-headers / annexb / no-aud / no-eob / no-eos / no-hrd / info / hash=0 / temporal-layers=0 / open-gop / min-keyint=23 / keyint=240 / gop-lookahead=0 / bframes=16 / b-adapt=2 / b-pyramid / bframe-bias=0 / rc-lookahead=40 / lookahead-slices=0 / scenecut=40 / no-hist-scenecut / radl=0 / no-splice / no-intra-refresh / ctu=32 / min-cu-size=8 / rect / amp / max-tu-size=32 / tu-inter-depth=4 / tu-intra-depth=4 / limit-tu=1 / rdoq-level=2 / dynamic-rd=0.00 / no-ssim-rd / signhide / no-tskip / nr-intra=0 / nr-inter=0 / no-constrained-intra / no-strong-intra-smoothing / max-merge=5 / limit-refs=3 / no-limit-modes / me=3 / subme=7 / merange=57 / temporal-mvp / no-frame-dup / no-hme / weightp / weightb / no-analyze-src-pics / deblock=-3:-3 / no-sao / no-sao-non-deblock / rd=6 / selective-sao=0 / no-early-skip / no-rskip / no-fast-intra / no-tskip-fast / no-cu-lossless / b-intra / no-splitrd-skip / rdpenalty=0 / psy-rd=2.00 / psy-rdoq=1.00 / no-rd-refine / no-lossless / cbqpoffs=0 / crqpoffs=0 / rc=crf / crf=20.5 / qcomp=0.60 / qpstep=4 / stats-write=0 / stats-read=0 / vbv-maxrate=50000 / vbv-bufsize=50000 / vbv-init=0.9 / min-vbv-fullness=50.0 / max-vbv-fullness=80.0 / crf-max=0.0 / crf-min=0.0 / ipratio=1.40 / pbratio=1.30 / aq-mode=1 / aq-strength=0.80 / no-cutree / zone-count=1 / zones: / start-frame=64894 / end-frame=69237 / qp=36 / no-strict-cbr / qg-size=32 / no-rc-grain / qpmax=69 / qpmin=0 / no-const-vbv / sar=1 / overscan=0 / videoformat=5 / range=0 / colorprim=2 / transfer=2 / colormatrix=2 / chromaloc=0 / display-window=0 / cll=0,0 / min-luma=0 / max-luma=1023 / log2-max-poc-lsb=8 / vui-timing-info / vui-hrd-info / slices=1 / no-opt-qp-pps / no-opt-ref-list-length-pps / no-multi-pass-opt-rps / scenecut-bias=0.00 / no-opt-cu-delta-qp / no-aq-motion / no-hdr10 / no-hdr10-opt / no-dhdr10-opt / no-idr-recovery-sei / analysis-reuse-level=0 / analysis-save-reuse-level=0 / analysis-load-reuse-level=0 / scale-factor=0 / refine-intra=0 / refine-inter=0 / refine-mv=1 / refine-ctu-distortion=0 / no-limit-sao / ctu-info=0 / no-lowpass-dct / refine-analysis-type=0 / copy-pic=1 / max-ausize-factor=1.0 / no-dynamic-refine / no-single-sei / no-hevc-aq / no-svt / no-field / qp-adaptation-range=1.00 / scenecut-aware-qp=0conformance-window-offsets / right=0 / bottom=0 / decoder-max-rate=0 / no-vbv-live-multi-pass / no-mcstf / no-sbrc Язык : Английский По умолчанию : Да Принудительно : Нет Аудио #1 Идентификатор : 2 Формат : AC-3 Формат/Информация : Audio Coding 3 Коммерческое название : Dolby Digital Идентификатор кодека : A_AC3 Продолжительность : 48 мин. 7 с. Вид битрейта : Постоянный Битрейт : 256 Кбит/сек Канал(-ы) : 2 канала Расположение каналов : L R Частота дискретизации : 48,0 КГц Частота кадров : 31,250 кадров/сек (1536 SPF) Метод сжатия : С потерями Размер потока : 88,1 Мбайт (4%) Заголовок : DUB (Red Head Sound) Язык : Русский Вид сервиса : Complete Main По умолчанию : Да Принудительно : Нет Аудио #2 Идентификатор : 3 Формат : AC-3 Формат/Информация : Audio Coding 3 Коммерческое название : Dolby Digital Идентификатор кодека : A_AC3 Продолжительность : 48 мин. 7 с. Вид битрейта : Постоянный Битрейт : 448 Кбит/сек Канал(-ы) : 6 каналов Расположение каналов : L R C LFE Ls Rs Частота дискретизации : 48,0 КГц Частота кадров : 31,250 кадров/сек (1536 SPF) Метод сжатия : С потерями Размер потока : 154 Мбайт (6%) Заголовок : MVO (HDRezka Studio) Язык : Русский Вид сервиса : Complete Main По умолчанию : Нет Принудительно : Нет AC3_metadata cmixlev : -3.0 dB surmixlev : -3 dB Аудио #3 Идентификатор : 4 Формат : AC-3 Формат/Информация : Audio Coding 3 Коммерческое название : Dolby Digital Идентификатор кодека : A_AC3 Продолжительность : 48 мин. 7 с. Вид битрейта : Постоянный Битрейт : 384 Кбит/сек Канал(-ы) : 2 канала Расположение каналов : L R Частота дискретизации : 48,0 КГц Частота кадров : 31,250 кадров/сек (1536 SPF) Метод сжатия : С потерями Размер потока : 132 Мбайт (5%) Заголовок : MVO (LostFilm) Язык : Русский Вид сервиса : Complete Main По умолчанию : Нет Принудительно : Нет Аудио #4 Идентификатор : 5 Формат : E-AC-3 JOC Формат/Информация : Enhanced AC-3 with Joint Object Coding Коммерческое название : Dolby Digital Plus with Dolby Atmos Идентификатор кодека : A_EAC3 Продолжительность : 48 мин. 7 с. Вид битрейта : Постоянный Битрейт : 768 Кбит/сек Канал(-ы) : 6 каналов Расположение каналов : L R C LFE Ls Rs Частота дискретизации : 48,0 КГц Частота кадров : 31,250 кадров/сек (1536 SPF) Метод сжатия : С потерями Размер потока : 264 Мбайт (11%) Заголовок : AVO (Юрий Сербин) Язык : Русский Вид сервиса : Complete Main По умолчанию : Нет Принудительно : Нет Показатель сложности : 16 Количество динамических объектов : 15 Число каналов бэда : 1 канал Конфигурация каналов бэда : LFE Аудио #5 Идентификатор : 6 Формат : AC-3 Формат/Информация : Audio Coding 3 Коммерческое название : Dolby Digital Идентификатор кодека : A_AC3 Продолжительность : 48 мин. 7 с. Вид битрейта : Постоянный Битрейт : 640 Кбит/сек Канал(-ы) : 6 каналов Расположение каналов : L R C LFE Ls Rs Частота дискретизации : 48,0 КГц Частота кадров : 31,250 кадров/сек (1536 SPF) Метод сжатия : С потерями Размер потока : 220 Мбайт (9%) Язык : Английский Вид сервиса : Complete Main По умолчанию : Нет Принудительно : Нет AC3_metadata cmixlev : -3.0 dB surmixlev : -3 dB Текст #1 Идентификатор : 7 Формат : UTF-8 Идентификатор кодека : S_TEXT/UTF8 Идентификатор кодека/Информация : UTF-8 Plain Text Продолжительность : 43 мин. 46 с. Битрейт : 2 бит/сек Частота кадров : 0,006 кадр/сек Число элементов : 15 Размер потока : 776 байт (0%) Заголовок : Russian @ forced SRT Язык : Русский По умолчанию : Да Принудительно : Нет Текст #2 Идентификатор : 8 Формат : UTF-8 Идентификатор кодека : S_TEXT/UTF8 Идентификатор кодека/Информация : UTF-8 Plain Text Продолжительность : 45 мин. 4 с. Битрейт : 96 бит/сек Частота кадров : 0,207 кадр/сек Число элементов : 559 Размер потока : 31,7 КиБ (0%) Язык : Русский По умолчанию : Нет Принудительно : Нет Текст #3 Идентификатор : 9 Формат : UTF-8 Идентификатор кодека : S_TEXT/UTF8 Идентификатор кодека/Информация : UTF-8 Plain Text Продолжительность : 44 мин. 51 с. Битрейт : 60 бит/сек Частота кадров : 0,209 кадр/сек Число элементов : 562 Размер потока : 19,7 КиБ (0%) Заголовок : English @ SRT Язык : Английский По умолчанию : Нет Принудительно : Нет Меню 00:00:00.000 : en:Chapter 01 00:05:39.213 : en:Chapter 02 00:13:24.929 : en:Chapter 03 00:22:14.124 : en:Chapter 04 00:31:29.512 : en:Chapter 05 00:39:43.005 : en:Chapter 06 00:45:06.620 : en:Chapter 07
[+] Скриншоты
Релиз от: OldGamer

Всего файлов в раздаче: 8 
Wednesday.S01E01.Wednesday's.Child.is.Full.of.Woe.mkv2.86 GB
Wednesday.S01E02.Woe.is.the.Loneliest.Number.mkv2.69 GB
Wednesday.S01E03.Friend.or.Woe.mkv2.53 GB
Wednesday.S01E04.Woe.What.A.Night.mkv2.64 GB
Wednesday.S01E05.You.Reap.What.You.Woe.mkv2.39 GB
Wednesday.S01E06.Quid.Pro.Woe.mkv2.46 GB
Wednesday.S01E07.If.You.Don't.Woe.By.Now.mkv2.26 GB
Wednesday.S01E08.A.Murder.of.Woes.mkv2.27 GB

Комментарии


Зарегистрируйтесь чтобы добавить комментарий
Торрент клиент
byTorrent - программа для загрузки торрент-файлов.

Скачать byTorrent.exe (1,5 МБ)

Скачать byTorrent.zip (0,6 МБ)

Поддержи torrent.by
российских рублей
(300 российских рублей это 4$)

Обратная связь rss

End game ©