↑↓torrent.by
Поиск
Логин:  Регистрация
Пароль:

Задача трёх тел / 3 Body Problem [S01] (2024) WEB-DLRip-AVC | КПК | Jaskier

download Скачать торрент-файл   magnet Магнитная ссылка Размер: 1.71 GB Добавлен: 2024-03-30 05:00
Пиры будут получены из сети DHT
Последний сидер был замечен 2024-04-15 23:15
Информация о фильме Название: Задача трёх тел Оригинальное название: 3 Body Problem Год выхода: 2024 Жанр: фантастика, триллер, драма, детектив Режиссер: Дерек Цан, Минки Спиро, Джереми Подесва, ... В ролях: Джесс Хун, Бенедикт Вонг, Эйса Гонсалес, Лиам Каннингэм, Цэн Цзинэ, Алекс Шарп, Джон Брэдли, Розалинд Чао, Джован Адепо, Джонатан Прайс О фильме: В 1967 году девушка-астрофизик — классовый враг и дочь насмерть забитого хунвэйбинами профессора — начинает работать в сверхсекретной лаборатории во Внутренней Монголии, где пытаются отправлять сигналы возможным внеземным цивилизациям. 2024 год. Ускорители частиц по всему миру показывают результаты, которые опровергают известные законы физики, а также происходит серия загадочных самоубийств учёных. Расследованием занимается лондонский детектив, который ведёт пристальное наблюдение за учениками покончившей с собой сотрудницы Оксфордского университета. Одна из них, занимающаяся разработками нановолокна, начинает видеть цифры обратного отсчёта, а другая забирает у матери погибшей загадочный высокотехнологичный шлем виртуальной реальности и запускает видеоигру, в которой нужно спасти от гибели цивилизацию, решив задачу трёх тел — трёх вращающихся вокруг планеты солнц. Страна: Великобритания, США, Китай Студия: Bighead Littlehead, Netflix Studios, Plan B Entertainment Продолжительность: 8 x ~ 00:55:00 Перевод: Профессиональный (многоголосый, закадровый) | Jaskier Файл Формат: MPEG-4 Base Media Качество: WEB-DLRip 360p (исх. WEB-DL 720p) Видео: AVC, 640x272 (2.35:1) at 23.976 fps, 422-531 kbps Аудио: AAC LC SBR (HE-AAC), 48.0 kHz, 2 ch, 72 kbps Субтитры: Russian (Forced, Full), English (SDH)
[+] MediaInfox264 : frame I:844 Avg QP:12.78 size: 22717 x264 : frame P:20783 Avg QP:14.66 size: 6320 x264 : frame B:65529 Avg QP:16.51 size: 1384 General Complete name : 3.Body.Problem.Jas.Series/3.Body.Problem.S01E01.Jas.WEB-DLRip.mp4 Format : MPEG-4 Format profile : Base Media Codec ID : isom (isom/avc1) File size : 263 MiB Duration : 1 h 0 min Overall bit rate mode : Variable Overall bit rate : 606 kb/s Encoded date : UTC 2024-03-28 13:17:43 Tagged date : UTC 2024-03-28 13:17:43 Video ID : 1 Format : AVC Format/Info : Advanced Video Codec Format profile : High@L3.2 Format settings : CABAC / 12 Ref Frames Format settings, CABAC : Yes Format settings, RefFrames : 12 frames Codec ID : avc1 Codec ID/Info : Advanced Video Coding Duration : 1 h 0 min Bit rate : 531 kb/s Maximum bit rate : 3 478 kb/s Width : 640 pixels Height : 272 pixels Display aspect ratio : 2.35:1 Frame rate mode : Constant Frame rate : 23.976 (24000/1001) FPS Color space : YUV Chroma subsampling : 4:2:0 Bit depth : 8 bits Scan type : Progressive Bits/(Pixel*Frame) : 0.127 Stream size : 230 MiB (88%) Title : Countdown Writing library : x264 core 133 r2334 a3ac64b Encoding settings : cabac=1 / ref=12 / deblock=1:0:0 / analyse=0x3:0x113 / me=umh / subme=10 / psy=1 / psy_rd=1.00:0.00 / mixed_ref=1 / me_range=24 / chroma_me=1 / trellis=2 / 8x8dct=1 / cqm=0 / deadzone=21,11 / fast_pskip=0 / chroma_qp_offset=-2 / threads=6 / lookahead_threads=1 / sliced_threads=0 / nr=0 / decimate=1 / interlaced=0 / bluray_compat=0 / constrained_intra=0 / bframes=13 / b_pyramid=2 / b_adapt=2 / b_bias=0 / direct=1 / weightb=1 / open_gop=0 / weightp=2 / keyint=240 / keyint_min=23 / scenecut=40 / intra_refresh=0 / rc=crf / mbtree=0 / crf=17.0 / qcomp=0.55 / qpmin=0 / qpmax=69 / qpstep=4 / ip_ratio=1.50 / pb_ratio=1.40 / aq=1:1.00 Language : English Encoded date : UTC 2024-03-28 13:17:43 Tagged date : UTC 2024-03-28 13:18:08 Color range : Limited Color primaries : BT.709 Transfer characteristics : BT.709 Matrix coefficients : BT.709 Codec configuration box : avcC Audio ID : 2 Format : AAC LC SBR Format/Info : Advanced Audio Codec Low Complexity with Spectral Band Replication Commercial name : HE-AAC Format settings : Explicit Codec ID : mp4a-40-2 Duration : 1 h 0 min Bit rate mode : Variable Bit rate : 72.0 kb/s Maximum bit rate : 82.8 kb/s Channel(s) : 2 channels Channel layout : L R Sampling rate : 48.0 kHz Frame rate : 23.438 FPS (2048 SPF) Compression mode : Lossy Stream size : 31.2 MiB (12%) Title : MVO - Jaskier Language : Russian Encoded date : UTC 2024-03-28 13:18:06 Tagged date : UTC 2024-03-28 13:18:08 Text #1 ID : 3 Format : Timed Text Codec ID : tx3g Duration : 55 min 27 s Bit rate mode : Variable Bit rate : 5 b/s Stream size : 1.87 KiB (0%) Title : Forced Language : Russian Forced : No Encoded date : UTC 2024-03-28 13:18:08 Tagged date : UTC 2024-03-28 13:18:08 Text #2 ID : 4 Format : Timed Text Codec ID : tx3g Duration : 58 min 29 s Bit rate mode : Variable Bit rate : 70 b/s Stream size : 29.9 KiB (0%) Title : Full Language : Russian Forced : No Encoded date : UTC 2024-03-28 13:18:08 Tagged date : UTC 2024-03-28 13:18:08 Text #3 ID : 5 Format : Timed Text Codec ID : tx3g Duration : 58 min 32 s Bit rate mode : Variable Bit rate : 67 b/s Stream size : 28.6 KiB (0%) Title : SDH Language : English Forced : No Encoded date : UTC 2024-03-28 13:18:08 Tagged date : UTC 2024-03-28 13:18:08
[+] Скриншоты
[+] Список серий01. Обратный отсчет / Countdown 02. Красный берег / Red Coast 03. Разрушитель миров / Destroyer of Worlds 04. Господь / Our Lord 05. День гнева / Judgment Day 06. Звезды – наша цель / The Stars Our Destination 07. Только вперед / Only Advance 08. Пустозрящий / Wallfacer

Всего файлов в раздаче: 8 
3.Body.Problem.S01E01.Jas.WEB-DLRip.mp4262.63 MB
3.Body.Problem.S01E02.Jas.WEB-DLRip.mp4247.16 MB
3.Body.Problem.S01E03.Jas.WEB-DLRip.mp4225.68 MB
3.Body.Problem.S01E04.Jas.WEB-DLRip.mp4160.65 MB
3.Body.Problem.S01E05.Jas.WEB-DLRip.mp4250.16 MB
3.Body.Problem.S01E06.Jas.WEB-DLRip.mp4180.49 MB
3.Body.Problem.S01E07.Jas.WEB-DLRip.mp4207.94 MB
3.Body.Problem.S01E08.Jas.WEB-DLRip.mp4218.30 MB

Похожие раздачи по запросу - Задача
2024-04-15 magnet Детектив на все руки. Задача со звёздочкой [S03] (2023) WEB-DL 1080p от Files-x 6.64 GB ↑ 0 ↓ 0
2024-04-15 magnet Детектив на все руки. Задача со звёздочкой [S03] (2023) WEB-DLRip-AVC от Files-x 2.25 GB ↑ 0 ↓ 0
2024-04-14 magnet Детектив на все руки. Задача со звёздочкой [S03] (2023) WEB-DLRip от Files-x 2.24 GB ↑ 0 ↓ 0
2024-04-13 magnet Детектив на все руки. Задача со звёздочкой / Сезон: 3 / Серии: 1-4 из 4 [2023, детектив, WEBRip-AVC] от Aleksan55 2.23 GB ↑ 1 ↓ 0
2024-04-03 magnet Задача трёх тел / 3 Body Problem [S01] (2024) WEB-DL-HEVC 2160p | 4K | HDR | HDrezka Studio, LostFilm, TVShows, Red Head Sound 40.50 GB ↑ 1 ↓ 3
2024-04-03 magnet Задача трёх тел / 3 Body Problem [S01] (2024) WEB-DL 2160p | 4K | SDR | P 54.63 GB ↑ 0 ↓ 2
2024-04-02 magnet Задача трёх тел / 3 Body Problem [S01] (2024) WEB-DLRip | LostFilm 6.19 GB ↑ 0 ↓ 1

Комментарии


Зарегистрируйтесь чтобы добавить комментарий
Торрент клиент
byTorrent - программа для загрузки торрент-файлов.

Скачать byTorrent.exe (1,5 МБ)

Скачать byTorrent.zip (0,6 МБ)

Поддержи torrent.by
российских рублей
(300 российских рублей это 4$)

Обратная связь rss

End game ©